Достать ножи: Стеклянная луковица

MVO

Добыча

Дубляж

Уэнсдэй

1 сезон

Тор

Дубляж

13 клиническая

1 сезон

Жестокая ночь

MVO

Одни из нас

1 сезон

Deluxe

pack

Рекомендуем

30

Пиратка

ВАЖНО

ВАЖНО

Ghostwire

Пиратка

jed

RePack

nioh2

RePack

RDR2

RePack

NEED FOR SPEED™ PAYBACK

RePack

скачать торрент

Кинопоиск HD

Острые козырьки 6 сезон

6 сезон

FAR CRY 6

RePack

скачать торрент

Лицензия

скачать торрент

MVO

1

1 сезон

скачать торрент

1 сезон

скачать торрент

Лицензия

  

Уродцы / Freaks (Тод Броунинг) [1932 г., ужасы, триллер, драма, DVDRip, Профессиональный двухголосый]

Уродцы через торрент 2022.piratbit.fun

Размер: 701 MB | Добавлен: 10 лет назад | Торрент скачан:37 раз
Смотреть онлайн | Скачать | Поддержите нас   

23-01-2013 16:09 Уродцы Скачать торрент  

Уродцы / Freaks

Год выпуска: 1932
Страна: США
Жанр: ужасы, триллер, драма
Продолжительность: 64 мин. / 01:04
Перевод: Профессиональный двухголосый

Режиссер: Тод Броунинг
Продюссер: Тод Броунинг, Дуэйн Эспер, Хильдегард Стади
Сценарий: Аль Боасберг, Виллис Голдбек, Леон Гордон

Бюджет: $310 607
Премьера в мире: 20 февраля 1932

Мировой рейтинг IMDB 7.90 (21 140)


В ролях: Уоллес Форд, Лейла Хайамс, Ольга Бакланова, Роско Эйтс, Генри Виктор, Гарри Ерлс, Дэйзи Ерлс, Роуз Дионе, Дэйзи Хилтон, Виолет Хилтон

Описание: Клеопатра — красавица-акробатка. В нее влюблен карлик Ганс, которому она предпочла силача Геркулеса... Когда Клеопатра узнает, что Ганс — наследник огромного состояния, она решает сначала выйти замуж за несчастного лилипута, а потом отравить его. Но после неудачной попытки отравления цирковые уродцы (сиамские близнецы, безрукая девушка и гермафродит) решают отомстить Клеопатре...

Доп. информация: «Уродцы»Тод Браунинга следующий фильм после успешной картины «Дракула». Важным аспектом известности и неприятия картины стал набор в качестве основных действующих лиц настоящих "ошибок природы" со всего мира. Один из известных персонажей- карлик, актер Харри Эрлз. Актеры были подобраны после долгого кастинга - более двадцати "уродцев" и русская актриса Ольга Бакланова. В самом начале ленты автор повествует об отношении к уродцам в Средние Века, когда только что родившегося ребёнка-урода уничтожали, и сравнивает их с современностью, когда на них делают деньги. Далее следует рассказ о Клеопатре (Ольга Бакланова), женщине, работавшей в цирке, и том, что с ней стало. Ей пришлось жестоко поплатиться за своё стремление завладеть наследством карлика Ганса, которого она хотела отравить сразу же после свадьбы...
Безусловно,этот фильм-драма,драма личности, заключенной в оболочку с патологическими дефектами. По замыслу "Уродцы" более всего напоминает "Человека-слона" Дэвида Линча (David Lynch, "The Elephant Man", 1980) - точнее, последний напоминает "Уродцев". На сегодняшний день сюжет не выглядит особенно оригинальным, но и не банален. Сценарий был написан Уиллисом Голдбеком по новелле Кларенса Роббинса "Spurs" Картина Браунингане была не принята в силу того, что не вписывалась в представления о кино тогдашних кинопродюсеров(киностудия MGM), и видимо,считалась аморальной.Так даже в период съемок большая часть персонала взбунтовалась из-за длительного сосуществования с необычными актерами. Контракт на 25-летние права на неугодный фильм у MGM выкупил Дуэйн Эспер (Dwain Esper). Получив весь съемочный материал, этот режиссер перемонтировал его с добавлением нового в своего рода аттракцион уродов и выпустил под броскими названиями "Ошибки природы" ("Nature's Mistakes"), "Запретная любовь" ("Forbidden Love"), "Шоу монстров" ("The Monster Show"). Вернув права на "Уродцев", в 1962-ом MGM снова показывает его, уже в Каннах, где фильм получает высочайшие оценки. Тяжкая история картины заканчивается приобретением прав на нее не нуждающимся в представлении Антоном ЛаВеем (LaVey), переиздавшем ее в финальном на сегодняшний день варианте.

Качество: DVDRip
Формат: AVI
Видео кодек: XviD
Аудио кодек: MP3
Видео: 640x480, XviD, 1387 Kbps, 0,19 b/px, 23,98fps
Аудио#1: 44.1 KHz, 2 канала, 128 Kbps






General
Полное имя : D:Urodzy.avi
Формат : AVI
Формат/Информация : Audio Video Interleave
Размер файла : 701 MiB
Продолжительность : 1h 4mn
Общий поток : 1 515 Kbps
Программа кодирования : VirtualDubMod 1.5.10.1 (build 2366/release)
Библиотека кодирования : VirtualDubMod build 2366/release

Video
Идентификатор : 0
Формат : MPEG-4 Visual
Параметр BVOP формата : No
Параметр QPel формата : No
Параметр GMC формата : No warppoints
Параметр матрицы формата : Default (MPEG)
Идентификатор кодека : XVID
Идентификатор кодека/Подсказка : XviD
Продолжительность : 1h 4mn
Битрейт : 1 377 Kbps
Ширина : 640 pixels
Высота : 480 pixels
Соотношение сторон : 4:3
Частота кадров : 23.976 fps
Цветовое пространство : YUV
Субдискретизация насыщенности : 4:2:0
Битовая глубина : 8 bits
Тип развёртки : Progressive
Метод сжатия : Lossy
Бит/(Пиксели*Кадры) : 0.187
Размер потока : 638 MiB (91%)

Audio
Идентификатор : 1
Формат : MPEG Audio
Версия формата : Version 1
Профиль формата : Layer 3
Идентификатор кодека : 55
Идентификатор кодека/Подсказка : MP3
Продолжительность : 1h 4mn
Вид битрейта : Constant
Битрейт : 128 Kbps
Каналы : 2 channels
Частота : 44.1 KHz
Метод сжатия : Lossy
Размер потока : 59.3 MiB (8%)
Выравнивание : Split accross interleaves
Продолжительность промежутка : 42 ms (1.00 video frame)
Время предзагрузки промежутка : 500 ms


Уродцы скачать торрент





Скачать Уродцы через торрент https://pic1.kartinco.top/images/111/rl573y5fmy.jpg Скачать, смотреть онлайн Уродцы бесплантно в хорошем качестве Описание: Клеопатра — красавица-акробатка. В нее влюблен карлик Ганс, которому она предпочла силача Геркулеса... Когда Клеопатра узнает, ... 10 10 2
Info! Золотая раздача, скачанное не засчитывается.
Торрент: Зарегистрирован [2013-01-23 16:09] · скачан: 37 раз
Статус: √ проверено
Размер: 701 MB
Как cкачать? Как скачать Уродцы через торрент | UTorrent

28-11-2019 20:33  


Отключить вcю реклaмy на сайте, в т.ч. и в плеере онлайн просмотра!

23-01-2013 17:40 Уродцы Скачать торрент  

Мне кажется или в конце фото медведева



23-01-2013 17:57 Уродцы Скачать торрент  

Шикарный фильм.



    Дорогой пользователь! Огромная просьба, поблагодарите релизера, оцените раздачу и оставьте свои комментарий, если Вы скачали Уродцы через торрент бесплатно!!
    Комментировать посты могут только пользователи прошедшие не сложную регистрацию
    Показать сообщения:    


    Уродцы через торрент
    Скачать бесплатно Уродцы
    Уродцы скачать торрент
    Уродцы смотреть онлайн
    Cкачать фильм Уродцы бесплатно
    Уродцы скачать торрент в хорошем качестве
    Уродцы смотреть онлайн бесплатно в хорошем качестве
    Вы не можете начинать темы
    Вы не можете отвечать на сообщения
    Вы не можете редактировать свои сообщения
    Вы не можете удалять свои сообщения
    Вы не можете голосовать в опросах
    Вы не можете прикреплять файлы к сообщениям
    Вы можете скачивать файлы
    Уродцы / Freaks [1932 г., ужасы, триллер, драма, DVDRip, Профессиональный двухголосый] смотреть онлайн, скачать торрент picoco.icu