Достать ножи: Стеклянная луковица

MVO

Добыча

Дубляж

Уэнсдэй

1 сезон

Тор

Дубляж

13 клиническая

1 сезон

Жестокая ночь

MVO

Одни из нас

1 сезон

Deluxe

pack

Рекомендуем

30

Пиратка

ВАЖНО

ВАЖНО

Ghostwire

Пиратка

jed

RePack

nioh2

RePack

RDR2

RePack

NEED FOR SPEED™ PAYBACK

RePack

скачать торрент

Кинопоиск HD

Острые козырьки 6 сезон

6 сезон

FAR CRY 6

RePack

скачать торрент

Лицензия

скачать торрент

MVO

1

1 сезон

скачать торрент

1 сезон

скачать торрент

Лицензия

  

Бонни и Клайд / Bonnie and Clyde (Артур Пенн / Arthur Penn) [1967, драма, криминал, биография, DVDRip] [Дубляж] (Варус Видео)

Бонни и Клайд через торрент 2022.piratbit.fun

Размер: 1.48 GB | Добавлен: 9 лет 6 мес. назад | Торрент скачан:217 раз
Смотреть онлайн | Скачать | Поддержите нас   

26-07-2013 07:54 Бонни и Клайд Скачать торрент  

Бонни и Клайд / Bonnie and Clyde«Хроники короткой жизни самых печально известных преступников Америки.»
Год выхода: 1967
Жанр: драма, криминал, биография
Страна: США
Студия: Warner Brothers/Seven Arts, Tatira-Hiller Productions
Продолжительность: 01:50:45
Перевод: Профессиональный (дублированный) [Варус Видео]

Режиссер: Артур Пенн

В ролях: Уоррен Битти, Фэй Данауэй, Майкл Дж. Поллард, Джин Хэкмен, Эстелл Парсонс, Денвер Пайл, Даб Тейлор, Эванс Эванс, Джин Уайлдер, Марта Эдкок, Гарри Эпплинг, Оуэн Буш, Мэйбл Кэвилл, Патрик Крэншо, Фрэнсис Фишер, Сэди Френч, Гарри Гуджион, Клайд Хауди, Русс Маркер, Кен Майер, Кен Миллер, Энн Палмер, Стюарт Спэйтс, Джеймс Стайвер, Ада Во

Роли дублировали: Владимир Конкин, Ирина Савина, Юрий Саранцев, Ольга Гаспарова, Вячеслав Баранов, Михаил Лебедев, Ирина Акулова, Владислав Баландин, Олег Голубицкий, Людмила Ильина

Описание:
Молодые и отчаянные любовники Бонни и Клайд легко и изящно грабят банки в 30-е годы XX века. Но их романтизм и «робингудство» довольно быстро перерастают в лужи и реки крови, в хаос и грязь смерти, а судьба пророчит им неудачу



Качество: DVDRip
Формат: AVI
Видео кодек: XviD
Аудио кодек: AC3
Видео: 704x400 (1.76:1), 23.976 fps, XviD build 46 ~1677 kbps avg, 0.25 bit/pixel
Аудио: 48 kHz, AC3 Dolby Digital, 2/0 (L,R) ch, ~224 kbps - Профессиональный (дублированный) [Варус Видео]
Субтитры: нет

Релиз от
General
Complete name : D:РаздачиBonnie.And.Clyde.1967.Xvid.DVDrip.avi
Format : AVI
Format/Info : Audio Video Interleave
File size : 1.48 GiB
Duration : 1h 50mn
Overall bit rate : 1 910 Kbps
Writing application : VirtualDubMod 1.5.4.1 (build 2178/release)
Writing library : VirtualDubMod build 2178/release

Video
ID : 0
Format : MPEG-4 Visual
Format profile : Advanced [email protected]
Format settings, BVOP : 1
Format settings, QPel : No
Format settings, GMC : No warppoints
Format settings, Matrix : Custom
Codec ID : XVID
Codec ID/Hint : XviD
Duration : 1h 50mn
Bit rate : 1 677 Kbps
Width : 704 pixels
Height : 400 pixels
Display aspect ratio : 16:9
Frame rate : 23.976 fps
Color space : YUV
Chroma subsampling : 4:2:0
Bit depth : 8 bits
Scan type : Progressive
Compression mode : Lossy
Bits/(Pixel*Frame) : 0.248
Stream size : 1.30 GiB (88%)
Writing library : XviD 1.1.2 (UTC 2006-11-01)

Audio
ID : 1
Format : AC-3
Format/Info : Audio Coding 3
Mode extension : CM (complete main)
Codec ID : 2000
Duration : 1h 50mn
Bit rate mode : Constant
Bit rate : 224 Kbps
Channel(s) : 2 channels
Channel positions : Front: L R
Sampling rate : 48.0 KHz
Bit depth : 16 bits
Compression mode : Lossy
Stream size : 177 MiB (12%)
Alignment : Split accross interleaves
Interleave, duration : 42 ms (1.00 video frame)
Interleave, preload duration : 500 ms



Скачать Бонни и Клайд через торрент http://s017.radikal.ru/i441/1307/f1/1ae6bee98a24.jpg Скачать, смотреть онлайн Бонни и Клайд бесплантно в хорошем качестве Описание: Молодые и отчаянные любовники Бонни и Клайд легко и изящно грабят банки в 30-е годы XX века. Но их романтизм и «робингудство» ... 9.1 10 12
Info! Золотая раздача, скачанное не засчитывается.
Торрент: Зарегистрирован [2013-07-26 07:54] · скачан: 217 раз
Статус: √ проверено
Размер: 1.48 GB
Как cкачать? Как скачать Бонни и Клайд через торрент | UTorrent

% Раздел Тема Автор DL S | L
Классика зарубежного кино [ 1.46 GB ] Бонни и Клайд / Bonnie and Clyde | Дубляж | BDRip Se7ven95 Скачать
1 | 0
Фильмы до 2000 г. [ 2.18 GB ] Бонни и Клайд / Bonnie and Clyde | | BDRip capral555 Скачать
1 | 0

28-11-2019 20:33  


Отключить вcю реклaмy на сайте, в т.ч. и в плеере онлайн просмотра!

26-07-2013 17:28 Бонни и Клайд Скачать торрент  

на обложке актеры ну ни как не похожи на двадцатипятилетних



26-07-2013 19:15 Бонни и Клайд Скачать торрент  

vaan37 писал(а):

на обложке актеры ну ни как не похожи на двадцатипятилетних

современные американские 30-ти летние актеры тоже никак на школьников не похожи но тем не менее играют в фильмах школьных а Уоррен Битти и Фей Данауей отлично сыграли "Бонни и Клайд"



    Дорогой пользователь! Огромная просьба, поблагодарите релизера, оцените раздачу и оставьте свои комментарий, если Вы скачали Бонни и Клайд через торрент бесплатно!!
    Комментировать посты могут только пользователи прошедшие не сложную регистрацию
    Показать сообщения:    


    Бонни и Клайд через торрент
    Скачать бесплатно Бонни и Клайд
    Бонни и Клайд скачать торрент
    Бонни и Клайд смотреть онлайн
    Cкачать фильм Бонни и Клайд бесплатно
    Бонни и Клайд скачать торрент в хорошем качестве
    Бонни и Клайд смотреть онлайн бесплатно в хорошем качестве
    Вы не можете начинать темы
    Вы не можете отвечать на сообщения
    Вы не можете редактировать свои сообщения
    Вы не можете удалять свои сообщения
    Вы не можете голосовать в опросах
    Вы не можете прикреплять файлы к сообщениям
    Вы можете скачивать файлы
    Бонни и Клайд / Bonnie and Clyde [1967, драма, криминал, биография, DVDRip] [Дубляж] смотреть онлайн, скачать торрент picoco.icu