новый адрес зеркало Аэроплан / Airplane! [1980 г., США, комедия, BDRip, Профессиональный многоголосый] смотреть онлайн, скачать торрент 2022.piratbit.fun
Архив 81

1 сезон

Добыча

Дубляж

Тед Лассо

3 сезон

Тор

1 сезон

13 клиническая

3 сезон

Жестокая ночь

Дубляж

Одни из нас

Лицензия

The Last of Us игра на PC

Extended

Deluxe

Deluxe

pack

Рекомендуем

30

Repack

ВАЖНО

ВАЖНО

Ghostwire

Пиратка

jed

RePack

nioh2

RePack

RDR2

RePack

NEED FOR SPEED™ PAYBACK

RePack

скачать торрент

Кинопоиск HD

Острые козырьки 6 сезон

6 сезон

FAR CRY 6

RePack

скачать торрент

Лицензия

скачать торрент

MVO

1

1 сезон

скачать торрент

1 сезон

скачать торрент

Лицензия

  

Аэроплан / Airplane! (Джим Абрахамс, Дэвид Цукер) [1980 г., США, комедия, BDRip, Профессиональный многоголосый]

Аэроплан через торрент 2022.piratbit.fun

Раздают: 3 [ 207 KB/s ]
Размер: 1.45 GB | Добавлен: 7 лет 4 мес. назад | Торрент скачан:286 раз
Смотреть онлайн | Скачать | Поддержите нас   

03-11-2013 03:26 Аэроплан Скачать торрент  

Аэроплан / Airplane!
Год выпуска: 1980
Страна: США
Слоган: «You've read the ad, now see the movie!»
Жанр: комедия
Продолжительность: 01:27:42
Перевод: Профессиональный (многоголосый, закадровый)
Субтитры: Нет

Режиссер:Джим Абрахамс / Jim Abrahams, Дэвид Цукер / David Zucker, Джерри Цукер / Jerry Zucker
Сценарий:Артур Хейли / Arthur Hailey, Холл Бартлетт / Hall Bartlett, Джон С. Чемпион / John C. Champion, Джим Абрахамс / Jim Abrahams, Дэвид Цукер / David Zucker
Продюсер:Джим Абрахамс / Jim Abrahams, Джон Дэвисон / Jon Davison, Ховард Коч / Howard W. Koch, Хант Лоури / Hunt Lowry, Дэвид Цукер / David Zucker
Оператор:Джозеф Ф. Бирок / Joseph F. Biroc
Композитор:Элмер Бернстайн / Elmer Bernstein, Джон Уильямс / John Williams

Роберт Хэйс (Ted Striker), Джули Хэгерти (Elaine), Питер Грейвз (Captain Oveur), Ллойд Бриджес (McCroskey), Лесли Нильсен (Dr. Rumack), Карим Абдул-Джаббар (Murdock), Лорна Паттерсон (Randy), Роберт Стэк (Rex Kramer), Стивен Стакер (Johnny), Отто (играет самого себя), Джим Абрахамс (Religious zealot #6), Фрэнк Эшмор (Victor Basta)

Описание:
Роберт Хейс исполняет роль бывшего военного летчика, оказавшегося на борту самолета, экипаж которого из-за пищевого отравления оказался не в состоянии управлять аэробусом.
Хейс вместе со стюардессой вынуждены стать спасителями пестрой компании пассажиров, оказавшихся на грани гибели. Новоявленного пилота и его помощницу ждут немыслимые трудности и невероятные приключения.

Рейтинг
kinopoisk.ru: 7.480 (7327)
imdb.com: 7.80 (113 326)
MPAA: PG - Рекомендуется присутствие родителей

Качество: BDRip
Формат: AVI
Видео кодек: XviD
Аудио кодек: AC3
Видео: XviD, 704x400 (16:9), 1975 kbps, 23,976 fps, 0,293 bpp
Аудио: AC3 / 5.1 / 48 kHz / 384 kbps / 16 bit



Общее
Кол-во : 284
Кол-во потоков такого типа : 1
Тип потока : General
Тип потока : Общее
Идентификатор типа потока : 0
Кол-во видеопотоков : 1
Кол-во аудиопотоков : 1
Video_Format_List : MPEG-4 Visual
Video_Format_WithHint_List : MPEG-4 Visual (XviD)
Видеокодеки : XviD
Audio_Format_List : AC-3
Audio_Format_WithHint_List : AC-3
Аудиокодеки : AC3
Полное имя : H:ТОРРЕНТЫАэроплан.avi
Имя папки : H:ТОРРЕНТЫ
Имя файла : Аэроплан
Расширение : avi
Формат : AVI
Формат : AVI
Формат/Информация : Audio Video Interleave
Формат/Используется в : avi
Коммерческое название : AVI
Интернет-тип носителя : video/vnd.avi
Чередующаяся : Yes
Кодек : AVI
Кодек : AVI
Кодек/Информация : Audio Video Interleave
Кодек/Используется в : avi
Размер файла : 1557827584
Размер файла : 1,45 Гбайт
Размер файла : 1 Гбайт
Размер файла : 1,5 Гбайт
Размер файла : 1,45 Гбайт
Размер файла : 1,451 Гбайт
Продолжительность : 5262049
Продолжительность : 1 ч. 27 м.
Продолжительность : 1 ч. 27 м. 42 с. 49 мс.
Продолжительность : 1 ч. 27 м.
Продолжительность : 01:27:42.049
Общий поток : 2368397
Общий поток : 2368 Кбит/сек
Размер потока : 6130136
Размер потока : 5,85 Мбайт (0%)
Размер потока : 6 Мбайт
Размер потока : 5,8 Мбайт
Размер потока : 5,85 Мбайт
Размер потока : 5,846 Мбайт
Размер потока : 5,85 Мбайт (0%)
Пропорции потока : 0.00394
Заголовок : Аэроплан / Airplane! (1980) BDRip
Название фильма : Аэроплан / Airplane! (1980) BDRip
Режиссёр : Gellard
Жанр : мелодрама, комедия
Дата файла : UTC 2013-11-03 02:52:50.540
Дата файла (местная) : 2013-11-03 09:52:50.540
Дата изменения файла : UTC 2013-11-03 02:59:25.540
Дата изменения файла (местная) : 2013-11-03 09:59:25.540
Программа кодирования : VirtualDubModRus 1.5.10.2 (build 2542/release)
Примечание : 04.01.2012

Видео
Кол-во : 263
Кол-во потоков такого типа : 1
Тип потока : Video
Тип потока : Видео
Идентификатор типа потока : 0
StreamOrder : 0
Идентификатор : 0
Идентификатор : 0
Формат : MPEG-4 Visual
Коммерческое название : MPEG-4 Visual
Профиль формата : Advanced Simple@L5
Настройки формата : BVOP1 / Custom Matrix
Параметр BVOP формата : 1
Параметр BVOP формата : 1
Параметр QPel формата : No
Параметр QPel формата : Нет
Параметр GMC формата : 0
Параметр GMC формата : Без точки перехода
Параметр матрицы формата : Custom
Параметр матрицы формата : Выборочная
Format_Settings_Matrix_Data : 080B0B0C0B0C0C0C0C0C0D0C0D0C0D0F0E0E0E0E0F100F0F100F0F10111010111110101111111213121111121314141312131515141314161614161716181818 / 0A0B0B0C0B0C0C0C0C0C0D0C0C0C0D0E0D0D0D0D0E0F0E0E0F0E0E0F100E0F10100F0E1010101112111010111213131211121314131214161614161716181818
Интернет-тип носителя : video/MP4V-ES
Идентификатор кодека : XVID
Идентификатор кодека/Подсказка : XviD
Идентификатор кодека/Ссылка : http://mediaarea.net/XVID
Кодек : XVID
Кодек : XviD
Кодек/Семейство : MPEG-4V
Кодек/Информация : XviD project
Кодек/Ссылка : http://www.xvid.org/Downloads.15.0.html
Кодек/CC : XVID
Профиль кодека : Advanced Simple@L5
Настройки кодека : BVOP / Custom Matrix
Параметр пакетного потока данных кодека : No
Параметр BVOP кодека : Yes
Параметр QPel кодека : No
Параметр GMC кодека : 0
Параметр GMC кодека : Без точки перехода
Параметр матрицы кодека : Custom
Продолжительность : 5262049
Продолжительность : 1 ч. 27 м.
Продолжительность : 1 ч. 27 м. 42 с. 49 мс.
Продолжительность : 1 ч. 27 м.
Продолжительность : 01:27:42.049
Битрейт : 1975113
Битрейт : 1975 Кбит/сек
Ширина : 704
Ширина : 704 пикселя
Высота : 400
Высота : 400 пикселей
Пропорции пикселя : 1.000
Соотношение сторон : 1.760
Соотношение сторон : 16:9
Частота кадров : 23.976
Частота кадров : 23,976 кадра/сек
Счётчик кадров : 126163
Разрешение : 8
Разрешение : 8 бит
Колориметрия : 4:2:0
Цветовое пространство : YUV
Субдискретизация насыщенности : 4:2:0
Битовая глубина : 8
Битовая глубина : 8 бит
Тип развёртки : Progressive
Тип развёртки : Прогрессивная
Переплетение : PPF
Переплетение : Прогрессивная
Метод сжатия : Lossy
Метод сжатия : С потерями
Бит/(Пиксели*Кадры) : 0.293
Задержка : 0
Задержка : 00:00:00.000
Размер потока : 1299143720
Размер потока : 1,21 Гбайт (83%)
Размер потока : 1 Гбайт
Размер потока : 1,2 Гбайт
Размер потока : 1,21 Гбайт
Размер потока : 1,210 Гбайт
Размер потока : 1,21 Гбайт (83%)
Пропорции потока : 0.83395
Библиотека кодирования : XviD0050
Библиотека кодирования : XviD 1.2.1 (UTC 2008-12-04)
Библиотека кодирования/Имя : XviD
Библиотека кодирования/Version : 1.2.1
Библиотека кодирования/Дата : UTC 2008-12-04

Аудио
Кол-во : 234
Кол-во потоков такого типа : 1
Тип потока : Audio
Тип потока : Аудио
Идентификатор типа потока : 0
StreamOrder : 1
Идентификатор : 1
Идентификатор : 1
Формат : AC-3
Формат/Информация : Audio Coding 3
Коммерческое название : AC-3
Расширение режима : CM (complete main)
Параметр Endianness формата : Big
Идентификатор кодека : 2000
Кодек : AC3
Кодек : AC3
Кодек/Семейство : AC3
Кодек/Информация : Dolby AC3
Кодек/CC : 2000
Продолжительность : 5261536
Продолжительность : 1 ч. 27 м.
Продолжительность : 1 ч. 27 м. 41 с. 536 мс.
Продолжительность : 1 ч. 27 м.
Продолжительность : 01:27:41.536
Вид битрейта : CBR
Вид битрейта : Постоянный
Битрейт : 384000
Битрейт : 384 Кбит/сек
Каналы : 6
Каналы : 6 каналов
Расположение каналов : Front: L C R, Side: L R, LFE
Расположение каналов : 3/2/0.1
Частота : 48000
Частота : 48,0 КГц
Количество образцов : 252553728
Разрешение : 16
Разрешение : 16 бит
Битовая глубина : 16
Битовая глубина : 16 бит
Метод сжатия : Lossy
Метод сжатия : С потерями
Задержка : 0
Задержка : 00:00:00.000
Задержка в оригинале : Stream
Задержка в оригинале : 'Сырой' поток
Задержка видео : 0
Задержка видео : 0
Размер потока : 252553728
Размер потока : 241 Мбайт (16%)
Размер потока : 241 Мбайт
Размер потока : 241 Мбайт
Размер потока : 241 Мбайт
Размер потока : 240,9 Мбайт
Размер потока : 241 Мбайт (16%)
Пропорции потока : 0.16212
Выравнивание : Split
Выравнивание : Разделение по промежуткам
Продолжительность промежутка : 1.00
Продолжительность промежутка : 42
Продолжительность промежутка : 42 мс. (1,00 видеокадр)
Время предзагрузки промежутка : 500
Время предзагрузки промежутка : 500 мс.
bsid : 8
dialnorm : -31
dialnorm/String : -31 dB
acmod : 7
lfeon : 1
dialnorm_Average : -31
dialnorm_Average/String : -31 dB
dialnorm_Minimum : -31
dialnorm_Minimum/String : -31 dB
dialnorm_Maximum : -31
dialnorm_Maximum/String : -31 dB
dialnorm_Count : 405






Скачать Аэроплан через торрент https://pic1.kartinco.top/images/41/m6m2r.jpg Скачать, смотреть онлайн Аэроплан бесплантно в хорошем качестве Описание:Роберт Хейс исполняет роль бывшего военного летчика, оказавшегося на борту самолета, экипаж которого из-за пищевого отравления ... 10 10 20
Торрент: Зарегистрирован [2015-11-15 01:38] · скачан: 286 раз
Статус: √ проверено
Размер: 1.45 GB
Как cкачать? Как скачать Аэроплан через торрент | UTorrent




Последний раз редактировалось: GEKADOL (2015-11-15 01:38), всего редактировалось 1 раз

28-11-2019 20:33  


Отключить вcю реклaмy на сайте, в т.ч. и в плеере онлайн просмотра!

03-11-2013 05:00 Аэроплан Скачать торрент  

ОЧЕНЬ смешной фильм ,с классным автопилотом- главное чтоб не сломался!



15-11-2015 05:03 Аэроплан Скачать торрент  

Спасибо!



    Дорогой пользователь! Огромная просьба, поблагодарите релизера, оцените раздачу и оставьте свои комментарий, если Вы скачали Аэроплан через торрент бесплатно!!
    Комментировать посты могут только пользователи прошедшие не сложную регистрацию
    Показать сообщения:    


    Аэроплан через торрент
    Скачать бесплатно Аэроплан
    Аэроплан скачать торрент
    Аэроплан смотреть онлайн
    Cкачать фильм Аэроплан бесплатно
    Аэроплан скачать торрент в хорошем качестве
    Аэроплан смотреть онлайн бесплатно в хорошем качестве
    Вы не можете начинать темы
    Вы не можете отвечать на сообщения
    Вы не можете редактировать свои сообщения
    Вы не можете удалять свои сообщения
    Вы не можете голосовать в опросах
    Вы не можете прикреплять файлы к сообщениям
    Вы можете скачивать файлы
    Аэроплан / Airplane! [1980 г., США, комедия, BDRip, Профессиональный многоголосый] смотреть онлайн, скачать торрент picoco.icu