Достать ножи: Стеклянная луковица

MVO

Добыча

Дубляж

Уэнсдэй

1 сезон

Тор

Дубляж

13 клиническая

1 сезон

Жестокая ночь

MVO

Одни из нас

1 сезон

Deluxe

pack

Рекомендуем

30

Пиратка

ВАЖНО

ВАЖНО

Ghostwire

Пиратка

jed

RePack

nioh2

RePack

RDR2

RePack

NEED FOR SPEED™ PAYBACK

RePack

скачать торрент

Кинопоиск HD

Острые козырьки 6 сезон

6 сезон

FAR CRY 6

RePack

скачать торрент

Лицензия

скачать торрент

MVO

1

1 сезон

скачать торрент

1 сезон

скачать торрент

Лицензия

  

Шугарлендский экспресс / The Sugarland Express (Стивен Спилберг / Steven Spielberg) [1974 г., драма, комедия, криминал, приключения, BDRip, Профессиональный многоголосый]

Шугарлендский экспресс через торрент 2022.piratbit.fun

Размер: 1.45 GB | Добавлен: 8 лет 2 мес. назад | Торрент скачан:15 раз
Смотреть онлайн | Скачать | Поддержите нас   

27-11-2014 05:43 Шугарлендский экспресс Скачать торрент  

Шугарлендский экспресс / The Sugarland Express
Год выпуска: 1974
Страна: США
Жанр: драма, комедия, криминал, приключения
Продолжительность: 01:49:52
Перевод: Профессиональный (многоголосый, закадровый) BD (CEE)

Режиссер: Стивен Спилберг / Steven Spielberg

В ролях: Голди Хоун / Goldie Hawn, Бен Джонсон / Ben Johnson, Майкл Сэкс / Michael Sacks, Уильям Атертон / William Atherton, Грегори Уэлкотт / Gregory Walcott, Стив Кэнэли / Steve Kanaly, Louise Latham / Луиз Лэтэм, Harrison Zanuck / Харрисон Занук, А. Л. Кэмп / A.L. Camp, Джесси Ли Фултон / Jessie Lee Fulton

Описание: «Шугарлэнд Экспресс» основан на подлинной истории Лу Джин Поплин, которая похитила заключенного из техасской тюрьмы и вовлекла полицию в безумную погоню по всей территории штата, пытаясь спасти своего сына от грозящего ему усыновления приемными родителями.

Качество: BDRip
Формат: AVI
Видео кодек: XviD
Аудио кодек: AC3
Видео: 720x304 (2.35:1), 1693 kbps, 23,976 fps, 0,323 bpp
Аудио: AC3 / 2.0 / 48 kHz / 192 kbps / 16 bit
General
Complete name : D:\Sugarland.Express.1974.BDRip.avi
Format : AVI
Format/Info : Audio Video Interleave
File size : 1.45 GiB
Duration : 1h 49mn
Overall bit rate : 1 895 Kbps
Writing application : VirtualDubMod 1.5.10.3 (build 2550/release)
Writing library : VirtualDubMod build 2550/release

Video
ID : 0
Format : MPEG-4 Visual
Format profile : Advanced [email protected]
Format settings, BVOP : 1
Format settings, QPel : No
Format settings, GMC : No warppoints
Format settings, Matrix : Custom
Codec ID : XVID
Codec ID/Hint : XviD
Duration : 1h 49mn
Bit rate : 1 694 Kbps
Width : 720 pixels
Height : 304 pixels
Display aspect ratio : 2.35:1
Frame rate : 23.976 fps
Color space : YUV
Chroma subsampling : 4:2:0
Bit depth : 8 bits
Scan type : Progressive
Compression mode : Lossy
Bits/(Pixel*Frame) : 0.323
Stream size : 1.30 GiB (89%)
Writing library : XviD 73

Audio
ID : 1
Format : AC-3
Format/Info : Audio Coding 3
Mode extension : CM (complete main)
Codec ID : 2000
Duration : 1h 49mn
Bit rate mode : Constant
Bit rate : 192 Kbps
Channel(s) : 2 channels
Channel positions : Front: L R
Sampling rate : 48.0 KHz
Bit depth : 16 bits
Compression mode : Lossy
Stream size : 151 MiB (10%)
Alignment : Split accross interleaves
Interleave, duration : 42 ms (1.00 video frame)
Interleave, preload duration : 500 ms



Скачать Шугарлендский экспресс через торрент https://pic1.kartinco.top/images/81/cwlcg.jpg Скачать, смотреть онлайн Шугарлендский экспресс бесплантно в хорошем качестве Описание: «Шугарлэнд Экспресс» основан на подлинной истории Лу Джин Поплин, которая похитила заключенного из техасской тюрьмы и вовлекла ... 10 10 2
Торрент: Зарегистрирован [2014-11-27 05:43] · скачан: 15 раз
Статус: √ проверено
Размер: 1.45 GB
Как cкачать? Как скачать Шугарлендский экспресс через торрент | UTorrent

% Раздел Тема Автор DL S | L
Классика зарубежного кино [ 1.45 GB ] Шугарлендский экспресс / The Sugarland Express | | BDRip-AVC MVO Ворон Скачать
2 | 0

28-11-2019 20:33  


Отключить вcю реклaмy на сайте, в т.ч. и в плеере онлайн просмотра!

    Дорогой пользователь! Огромная просьба, поблагодарите релизера, оцените раздачу и оставьте свои комментарий, если Вы скачали Шугарлендский экспресс через торрент бесплатно!!
    Комментировать посты могут только пользователи прошедшие не сложную регистрацию
    Показать сообщения:    


    Шугарлендский экспресс через торрент
    Скачать бесплатно Шугарлендский экспресс
    Шугарлендский экспресс скачать торрент
    Шугарлендский экспресс смотреть онлайн
    Cкачать фильм Шугарлендский экспресс бесплатно
    Шугарлендский экспресс скачать торрент в хорошем качестве
    Шугарлендский экспресс смотреть онлайн бесплатно в хорошем качестве
    Вы не можете начинать темы
    Вы не можете отвечать на сообщения
    Вы не можете редактировать свои сообщения
    Вы не можете удалять свои сообщения
    Вы не можете голосовать в опросах
    Вы не можете прикреплять файлы к сообщениям
    Вы можете скачивать файлы
    Шугарлендский экспресс / The Sugarland Express [1974 г., драма, комедия, криминал, приключения, BDRip, Профессиональный многоголосый] смотреть онлайн, скачать торрент picoco.icu