Достать ножи: Стеклянная луковица

MVO

Добыча

Дубляж

Уэнсдэй

1 сезон

Тор

Дубляж

13 клиническая

1 сезон

Жестокая ночь

MVO

Одни из нас

1 сезон

Deluxe

pack

Рекомендуем

30

Пиратка

ВАЖНО

ВАЖНО

Ghostwire

Пиратка

jed

RePack

nioh2

RePack

RDR2

RePack

NEED FOR SPEED™ PAYBACK

RePack

скачать торрент

Кинопоиск HD

Острые козырьки 6 сезон

6 сезон

FAR CRY 6

RePack

скачать торрент

Лицензия

скачать торрент

MVO

1

1 сезон

скачать торрент

1 сезон

скачать торрент

Лицензия

  

Малыш / The Kid (Чарльз Чаплин) [1921 г., драма, комедия, семейный, BDRip 1080p, Оригинал]

Малыш через торрент 2022.piratbit.fun

Размер: 4.37 GB | Добавлен: 8 лет назад | Торрент скачан:21 раз
Смотреть онлайн | Скачать | Поддержите нас   

17-01-2015 18:39 Малыш Скачать торрент  

Малыш / The Kid
Год выпуска: 1921
Страна: США
Жанр: драма, комедия, семейный
Продолжительность: 68 мин. / 01:08
Перевод: Оригинал
Субтитры: Русские

Режиссер: Чарльз Чаплин
Продюссер: Чарльз Чаплин
Сценарий: Чарльз Чаплин

Бюджет: $250 000
Премьера в мире: 21 января 1921

IMDB 8.40 (49 207)


В ролях: Чарльз Чаплин, Джеки Кугэн, Карл Миллер, Эдна Первиэнс, Альберт Остин, Бела Бейнс, Нелли Блай Бэйкер, Генри Бергман, Ф. Блинн, Китти Брэдбери

Описание: Фильм «Малыш» стал первым полнометражным фильмом Чаплина-режиссера. Актера на главную роль Малыша — пятилетнего Джекки Кугана — Чаплин нашел на сцене, где ребенок выступал на равных со взрослыми. Джекки оказался прирожденным актером и схватывал все на лету.Фильм «Малыш» — это история ребенка, брошенного матерью вскоре после рождения. После цепи приключений подкидыша находит житель трущоб бедный Чарли, который учит ребенка тому, что знает сам.

Качество: BDRip 1080p
Формат: MKV
Видео кодек: AVC
Аудио кодек: AC3
Видео: AVC at 11,2 Мбит/сек 1424 x 1080 (1.319) at 23.976 fps
Аудио#1: AC-3 at 640 Кбит/сек 2 канала(ов), 48,0 КГц
Релиз от: HDReactor
скриншот   скриншот   скриншот   скриншот   скриншот  

Общее
Уникальный идентификатор : 193017391528588801225884774281987781567 (0x9135CC234635A8CA95492C774DCC73BF)
Полное имя : D:\Видео\The Kid_Rip1080_HDR.mkv
Формат : Matroska
Версия формата : Version 2
Размер файла : 4,37 Гбайт
Продолжительность : 52 м.
Общий поток : 11,9 Мбит/сек
Название фильма : The Kid_Rip1080_HDReactor.org
Дата кодирования : UTC 2010-08-11 13:48:06
Программа кодирования : mkvmerge v3.4.0 ('Rapunzel') сборка от May 15 2010 09:38:20
Библиотека кодирования : libebml v0.8.0 + libmatroska v0.9.0

Видео
Идентификатор : 1
Формат : AVC
Формат/Информация : Advanced Video Codec
Профиль формата : [email protected]
Параметр CABAC формата : Да
Параметр ReFrames формата : 4 кадра
Идентификатор кодека : V_MPEG4/ISO/AVC
Продолжительность : 52 м.
Битрейт : 11,2 Мбит/сек
Ширина : 1424 пикселя
Высота : 1080 пикселей
Соотношение сторон : 4:3
Режим частоты кадров : Постоянный
Частота кадров : 23,976 кадра/сек
Цветовое пространство : YUV
Субдискретизация насыщенности : 4:2:0
Битовая глубина : 8 бит
Тип развёртки : Прогрессивная
Бит/(Пиксели*Кадры) : 0.305
Размер потока : 4,05 Гбайт (93%)
Библиотека кодирования : x264 core 98 r1649 20cbe10
Настройки программы : cabac=1 / ref=4 / deblock=1:-3:-3 / analyse=0x3:0x113 / me=umh / subme=7 / psy=1 / psy_rd=0.90:0.05 / mixed_ref=1 / me_range=32 / chroma_me=1 / trellis=2 / 8x8dct=1 / cqm=0 / deadzone=21,11 / fast_pskip=0 / chroma_qp_offset=-3 / threads=12 / sliced_threads=0 / nr=0 / decimate=0 / interlaced=0 / constrained_intra=0 / bframes=7 / b_pyramid=2 / b_adapt=2 / b_bias=0 / direct=1 / weightb=1 / weightp=2 / keyint=250 / keyint_min=25 / scenecut=40 / intra_refresh=0 / rc=2pass / mbtree=0 / bitrate=11228 / ratetol=1.0 / qcomp=0.60 / qpmin=10 / qpmax=51 / qpstep=4 / cplxblur=20.0 / qblur=0.5 / ip_ratio=1.40 / pb_ratio=1.30 / aq=1:1.00
Язык : English
Default : Нет
Forced : Нет

Аудио
Идентификатор : 2
Формат : AC-3
Формат/Информация : Audio Coding 3
Расширение режима : CM (complete main)
Параметр Endianness формата : Big
Идентификатор кодека : A_AC3
Продолжительность : 52 м.
Вид битрейта : Постоянный
Битрейт : 640 Кбит/сек
Каналы : 2 канала
Расположение каналов : Front: L R
Частота : 48,0 КГц
Битовая глубина : 16 бит
Метод сжатия : С потерями
Размер потока : 242 Мбайт (5%)
Язык : English
Default : Да
Forced : Нет

Текст
Идентификатор : 3
Формат : UTF-8
Идентификатор кодека : S_TEXT/UTF8
Идентификатор кодека/Информация : UTF-8 Plain Text
Язык : Russian
Default : Да
Forced : Нет

Меню
00:00:00.000 : en:00:00:00.000
00:10:16.741 : en:00:10:16.741
00:12:38.341 : en:00:12:38.341
00:17:40.726 : en:00:17:40.726
00:26:01.643 : en:00:26:01.643
00:34:56.136 : en:00:34:56.136
00:42:57.658 : en:00:42:57.658
00:47:04.989 : en:00:47:04.989


Малыш скачать торрент





Скачать Малыш через торрент https://pic1.kartinco.top/images/81/ajgwi.jpg Скачать, смотреть онлайн Малыш бесплантно в хорошем качестве Описание: Фильм «Малыш» стал первым полнометражным фильмом Чаплина-режиссера. Актера на главную роль Малыша — пятилетнего Джекки Кугана — ... 9.9 10 9
Info! Золотая раздача, скачанное не засчитывается.
Торрент: Зарегистрирован [2015-01-17 18:39] · скачан: 21 раз
Статус: √ проверено
Размер: 4.37 GB
Как cкачать? Как скачать Малыш через торрент | UTorrent

% Раздел Тема Автор DL S | L
Фильмы до 2000 г. [ 887 MB ] Малыш / The Kid | | BDRip -=Cherry=- Скачать
1 | 0

28-11-2019 20:33  


Отключить вcю реклaмy на сайте, в т.ч. и в плеере онлайн просмотра!

    Дорогой пользователь! Огромная просьба, поблагодарите релизера, оцените раздачу и оставьте свои комментарий, если Вы скачали Малыш через торрент бесплатно!!
    Комментировать посты могут только пользователи прошедшие не сложную регистрацию
    Показать сообщения:    


    Малыш через торрент
    Скачать бесплатно Малыш
    Малыш скачать торрент
    Малыш смотреть онлайн
    Cкачать фильм Малыш бесплатно
    Малыш скачать торрент в хорошем качестве
    Малыш смотреть онлайн бесплатно в хорошем качестве
    Вы не можете начинать темы
    Вы не можете отвечать на сообщения
    Вы не можете редактировать свои сообщения
    Вы не можете удалять свои сообщения
    Вы не можете голосовать в опросах
    Вы не можете прикреплять файлы к сообщениям
    Вы можете скачивать файлы
    Малыш / The Kid [1921 г., драма, комедия, семейный, BDRip 1080p, Оригинал] смотреть онлайн, скачать торрент picoco.icu