Достать ножи: Стеклянная луковица

MVO

Добыча

Дубляж

Уэнсдэй

1 сезон

Тор

Дубляж

13 клиническая

1 сезон

Жестокая ночь

MVO

Одни из нас

1 сезон

Deluxe

pack

Рекомендуем

30

Пиратка

ВАЖНО

ВАЖНО

Ghostwire

Пиратка

jed

RePack

nioh2

RePack

RDR2

RePack

NEED FOR SPEED™ PAYBACK

RePack

скачать торрент

Кинопоиск HD

Острые козырьки 6 сезон

6 сезон

FAR CRY 6

RePack

скачать торрент

Лицензия

скачать торрент

MVO

1

1 сезон

скачать торрент

1 сезон

скачать торрент

Лицензия

  

Меморандум Квиллера / The Quiller Memorandum (Майкл Андерсон) [1966 г., триллер, драма, криминал, детектив, BDRip] MVO

Меморандум Квиллера через торрент 2022.piratbit.fun

Размер: 1.45 GB | Добавлен: 6 лет 5 мес. назад | Торрент скачан:6 раз
Смотреть онлайн | Скачать | Поддержите нас   

07-08-2016 14:52 Меморандум Квиллера Скачать торрент  

Меморандум Квиллера / The Quiller Memorandum
Год выпуска: 1966
Страна: Великобритания, США
Жанр: триллер, драма, криминал, детектив
Продолжительность: 01:44:50
Перевод: Профессиональный (многоголосый)

Режиссер: Майкл Андерсон
Продюссер: Ivan Foxwell
Сценарий: Гарольд Пинтер, Тревор Дадли Смит

Премьера в мире: 10 ноября 1966



В ролях: Джордж Сигал, Алек Гиннесс, Макс фон Сюдов, Зента Бергер, Джордж Сандерс, Роберт Флеминг, Питер Карстен, Эрнст Вальдер, Эдит Шнайдер, Филип Мэдок, Гюнтер Мейснер, Джон Риз

Описание: Берлин, середина 60-х годов. Здесь набирает силу подпольная неонацистская организация. Разведывательный центр, выполняющий особо важные задания по всему миру, должен главных экстремистов найти и обезвредить. Два агента, вплотную к ним подобравшиеся, были убиты. И теперь из Великобритании прибыл новый агент — Квиллер. Его методы работы необычны и крайне опасны для него самого: он намеренно делает так, чтобы противник его быстро вычислил. Квиллера похищают и привозят в логово преступной организации…

Качество: BDRip
Формат: AVI
Видео кодек: XviD
Аудио кодек: AC3
Видео: XviD, 1777 Кбит/с, 720х304, 24 кадр/с
Аудио: АС3, 2 ch, 192 Кбит/с, 48 kHz
Релиз от: Koenig
Общее
Полное имя : The.Quiller.Memorandum.1966.BDRip.avi
Формат : AVI
Формат/Информация : Audio Video Interleave
Размер файла : 1,45 Гбайт
Продолжительность : 1 ч. 44 м.
Общий поток : 1979 Кбит/сек
Программа кодирования : VirtualDubMod 1.5.10.2 (build 2540/release)
Библиотека кодирования : VirtualDubMod build 2540/release

Видео
Идентификатор : 0
Формат : MPEG-4 Visual
Профиль формата : Advanced [email protected]
Параметр BVOP формата : 1
Параметр QPel формата : Нет
Параметр GMC формата : Без точки перехода
Параметр матрицы формата : Default (H.263)
Идентификатор кодека : XVID
Идентификатор кодека/Подсказка : XviD
Продолжительность : 1 ч. 44 м.
Битрейт : 1777 Кбит/сек
Ширина : 720 пикселей
Высота : 304 пикселя
Соотношение сторон : 2,35:1
Частота кадров : 24,000 кадра/сек
Цветовое пространство : YUV
Субдискретизация насыщенности : 4:2:0
Битовая глубина : 8 бит
Тип развёртки : Прогрессивная
Метод сжатия : С потерями
Бит/(Пиксели*Кадры) : 0.338
Размер потока : 1,30 Гбайт (90%)
Библиотека кодирования : XviD 1.2.0.dev47 (UTC 2006-11-01)

Аудио
Идентификатор : 1
Формат : AC-3
Формат/Информация : Audio Coding 3
Расширение режима : CM (complete main)
Параметр Endianness формата : Big
Идентификатор кодека : 2000
Продолжительность : 1 ч. 44 м.
Вид битрейта : Постоянный
Битрейт : 192 Кбит/сек
Каналы : 2 канала
Расположение каналов : Front: L R
Частота : 48,0 КГц
Метод сжатия : С потерями
Размер потока : 144 Мбайт (10%)
Выравнивание : Разделение по промежуткам
Продолжительность промежутка : 42 мс. (1,00 видеокадр)
Время предзагрузки промежутка : 500 мс.




Скачать Меморандум Квиллера через торрент https://pic1.kartinco.top/images/10/3n526.jpg Скачать, смотреть онлайн Меморандум Квиллера бесплантно в хорошем качестве Описание: Берлин, середина 60-х годов. Здесь набирает силу подпольная неонацистская организация. Разведывательный центр, выполняющий особо ... 10 10 2
Торрент: Зарегистрирован [2016-08-07 14:52] · скачан: 6 раз
Статус: √ проверено
Размер: 1.45 GB
Как cкачать? Как скачать Меморандум Квиллера через торрент | UTorrent

28-11-2019 20:33  


Отключить вcю реклaмy на сайте, в т.ч. и в плеере онлайн просмотра!

    Дорогой пользователь! Огромная просьба, поблагодарите релизера, оцените раздачу и оставьте свои комментарий, если Вы скачали Меморандум Квиллера через торрент бесплатно!!
    Комментировать посты могут только пользователи прошедшие не сложную регистрацию
    Показать сообщения:    


    Меморандум Квиллера через торрент
    Скачать бесплатно Меморандум Квиллера
    Меморандум Квиллера скачать торрент
    Меморандум Квиллера смотреть онлайн
    Cкачать фильм Меморандум Квиллера бесплатно
    Меморандум Квиллера скачать торрент в хорошем качестве
    Меморандум Квиллера смотреть онлайн бесплатно в хорошем качестве
    Вы не можете начинать темы
    Вы не можете отвечать на сообщения
    Вы не можете редактировать свои сообщения
    Вы не можете удалять свои сообщения
    Вы не можете голосовать в опросах
    Вы не можете прикреплять файлы к сообщениям
    Вы можете скачивать файлы
    Меморандум Квиллера / The Quiller Memorandum [1966 г., триллер, драма, криминал, детектив, BDRip] MVO смотреть онлайн, скачать торрент picoco.icu