Достать ножи: Стеклянная луковица

MVO

Добыча

Дубляж

Уэнсдэй

1 сезон

Тор

Дубляж

13 клиническая

1 сезон

Жестокая ночь

MVO

Одни из нас

1 сезон

Deluxe

pack

Рекомендуем

30

Пиратка

ВАЖНО

ВАЖНО

Ghostwire

Пиратка

jed

RePack

nioh2

RePack

RDR2

RePack

NEED FOR SPEED™ PAYBACK

RePack

скачать торрент

Кинопоиск HD

Острые козырьки 6 сезон

6 сезон

FAR CRY 6

RePack

скачать торрент

Лицензия

скачать торрент

MVO

1

1 сезон

скачать торрент

1 сезон

скачать торрент

Лицензия

  

Дракула / Dracula (Тод Браунинг ) [1931, ужасы, HDTVRip, Профессиональный (многоголосый)]

Дракула через торрент 2022.piratbit.fun

Размер: 1.36 GB | Добавлен: 6 лет 4 мес. назад | Торрент скачан:15 раз
Смотреть онлайн | Скачать | Поддержите нас   

11-09-2016 21:32 Дракула Скачать торрент  

Дракула / Dracula

Год выпуска: 1931
Страна: США
Жанр: ужасы
Продолжительность: 01:14:44
Перевод: Профессиональный (многоголосый)
Режиссер: Тод Браунинг
В ролях: Бела Лугоши (Count Dracula), Хелен Чандлер (Mina), Дэвид Мэннерс (John Harker), Дуайт Фрай (Renfield), Эдвард Ван Слоун (Van Helsing), Херберт Банстон (Doctor Seward), Фрэнсис Даде (Lucy), Джоан Стэндинг (Maid), Чарльз К. Джеррард (Martin), Анна Бакач (Innkeeper's Daughter, в титрах не указана), Николас Бела (Coach Passenger, в титрах не указан), Дэйзи Бельмор (Coach Passenger, в титрах не указана)
Описание:
Агент по недвижимости Ренфилд приезжает в Трансильванию, чтобы подписать с графом Дракулой договор о покупке им старого аббатства Карфакс в Лондоне. Местные жители предупреждают Ренфилда, что замок Дракулы - логово нечисти, но тот игнорирует предупреждения и отправляется в замок. На перевале Борго его подбирает карета с молчаливым кучером. Выглянув по дороге из кареты, Ренфилд видит, что кучер исчез, а над упряжкой машет крыльями летучая мышь...
Рейтинг:

Качество: HDTVRip
Формат: AVI
Видео: XviD, 720x528 (4:3), 1977 kbps, 23,976 fps, 0,217 bpp
Аудио №1 русский: AC3 / 2.0 / 48 kHz / 224 kbps /
Аудио №2 английский: AC3 / 2.0 / 48 kHz / 384 kbps /
Семпл
General
Complete name : D:\торренты\Dracula (Tod Browning, Karl Freund, 1931) HDTVRip Rus, Eng [TNU-Movie].avi
Format : AVI
Format/Info : Audio Video Interleave
File size : 1.36 GiB
Duration : 1 h 14 min
Overall bit rate : 2 600 kb/s
Movie name : Дракула / Dracula (Тод Броунинг / Карл Фройнд, 1931) HDTVRip (Rus, Eng)
Director : Dracon / vamp69
Writing application : VirtualDubModRus 1.5.10.2 (build 2540/release)
Original source form/Name : Movie
Copyright : 9/11/2010 http://torrents.net.ua & http://raketnica.net.ua/
Comment : 720p HDTVRip - 3 776 975 235 (3,52 GB)

Video
ID : 0
Format : MPEG-4 Visual
Format profile : Advanced [email protected]
Format settings, BVOP : 1
Format settings, QPel : No
Format settings, GMC : No warppoints
Format settings, Matrix : Default (MPEG)
Muxing mode : Packed bitstream
Codec ID : XVID
Codec ID/Hint : XviD
Duration : 1 h 14 min
Bit rate : 1 978 kb/s
Width : 720 pixels
Height : 528 pixels
Display aspect ratio : 4:3
Frame rate : 23.976 (23976/1000) FPS
Color space : YUV
Chroma subsampling : 4:2:0
Bit depth : 8 bits
Scan type : Progressive
Compression mode : Lossy
Bits/(Pixel*Frame) : 0.217
Stream size : 1.03 GiB (76%)
Writing library : XviD 1.2.1 (UTC 2008-12-04)

Audio #1
ID : 1
Format : AC-3
Format/Info : Audio Coding 3
Mode extension : CM (complete main)
Format settings, Endianness : Big
Codec ID : 2000
Duration : 1 h 14 min
Bit rate mode : Constant
Bit rate : 224 kb/s
Channel(s) : 2 channels
Channel positions : Front: L R
Sampling rate : 48.0 kHz
Frame rate : 31.250 FPS (1536 spf)
Compression mode : Lossy
Stream size : 120 MiB (9%)
Alignment : Split accross interleaves
Interleave, duration : 42 ms (1.00 video frame)
Interleave, preload duration : 500 ms

Audio #2
ID : 2
Format : AC-3
Format/Info : Audio Coding 3
Mode extension : CM (complete main)
Format settings, Endianness : Big
Codec ID : 2000
Duration : 1 h 14 min
Bit rate mode : Constant
Bit rate : 384 kb/s
Channel(s) : 2 channels
Channel positions : Front: L R
Sampling rate : 48.0 kHz
Frame rate : 31.250 FPS (1536 spf)
Compression mode : Lossy
Stream size : 205 MiB (15%)
Alignment : Split accross interleaves
Interleave, duration : 42 ms (1.00 video frame)
Interleave, preload duration : 500 ms



Скачать Дракула через торрент http://i85.fastpic.ru/big/2016/0912/f7/93d1628e047a249bef5881756adae3f7.jpg Скачать, смотреть онлайн Дракула бесплантно в хорошем качестве Описание: Агент по недвижимости Ренфилд приезжает в Трансильванию, чтобы подписать с графом Дракулой договор о покупке им старого аббатства ... 10 10 4
Торрент: Зарегистрирован [2016-09-11 21:32] · скачан: 15 раз
Статус: √ проверено
Размер: 1.36 GB
Как cкачать? Как скачать Дракула через торрент | UTorrent

28-11-2019 20:33  


Отключить вcю реклaмy на сайте, в т.ч. и в плеере онлайн просмотра!

    Дорогой пользователь! Огромная просьба, поблагодарите релизера, оцените раздачу и оставьте свои комментарий, если Вы скачали Дракула через торрент бесплатно!!
    Комментировать посты могут только пользователи прошедшие не сложную регистрацию
    Показать сообщения:    


    Дракула через торрент
    Скачать бесплатно Дракула
    Дракула скачать торрент
    Дракула смотреть онлайн
    Cкачать фильм Дракула бесплатно
    Дракула скачать торрент в хорошем качестве
    Дракула смотреть онлайн бесплатно в хорошем качестве
    Вы не можете начинать темы
    Вы не можете отвечать на сообщения
    Вы не можете редактировать свои сообщения
    Вы не можете удалять свои сообщения
    Вы не можете голосовать в опросах
    Вы не можете прикреплять файлы к сообщениям
    Вы можете скачивать файлы
    Дракула / Dracula [1931, ужасы, HDTVRip, Профессиональный ] смотреть онлайн, скачать торрент picoco.icu