Достать ножи: Стеклянная луковица

MVO

Добыча

Дубляж

Уэнсдэй

1 сезон

Тор

Дубляж

13 клиническая

1 сезон

Жестокая ночь

MVO

Одни из нас

1 сезон

Deluxe

pack

Рекомендуем

30

Пиратка

ВАЖНО

ВАЖНО

Ghostwire

Пиратка

jed

RePack

nioh2

RePack

RDR2

RePack

NEED FOR SPEED™ PAYBACK

RePack

скачать торрент

Кинопоиск HD

Острые козырьки 6 сезон

6 сезон

FAR CRY 6

RePack

скачать торрент

Лицензия

скачать торрент

MVO

1

1 сезон

скачать торрент

1 сезон

скачать торрент

Лицензия

  

Синяя борода / Bluebeard / Barbe-bleue (Жорж Мельес / Georges Méliès) [1901, короткометражка, фэнтези, ужасы, DVDRip-AVC]

Синяя борода через торрент 2022.piratbit.fun

Размер: 214 MB | Добавлен: 6 лет назад | Торрент скачан:23 раза
Смотреть онлайн | Скачать | Поддержите нас   

06-01-2017 17:32 Синяя борода Скачать торрент  



Синяя борода / Barbe-bleue

Страна: Франция
Жанр: короткометражка, фэнтези, ужасы
Год выхода: 1901
Продолжительность: 00:10:21
Перевод: не требуется
Субтитры: нет
Оригинальная аудиодорожка: музыкальное сопровождение

Режиссер: Жорж Мельес / Georges Méliès

В ролях: Жорж Мельес, Жанна д'Альси, Блёэтт Бернон

Описание: Самая ранняя экранизация знаменитой сказки Шарля Перро. Молодая девушка становится восьмой женой Синей Бороды - богача, чьи предыдущие восемь жён умерли при таинственных обстоятельствах.



Сэмпл: скачать

Качество: DVDRip-AVC
Формат: MKV
Видео: 720x480 (4:3), 23.976 fps, x264 ~2700 kbps avg, 0.326 bit/pixel
Аудио: 48 kHz, AC3 Dolby Digital, 2/0 (L,R) ch, 192.00 kbps avg

Код:

General
Unique ID                                : 225904523920265968020202256713693254499 (0xA9F3A0F3BB71B23C8A773C71DEEFD363)
Complete name                            : Barbe-bleue.1901.DVDRip-AVC.x264.AC3.-GELLARD.mkv
Format                                   : Matroska
Format version                           : Version 4 / Version 2
File size                                : 214 MiB
Duration                                 : 10mn 20s
Overall bit rate                         : 2 893 Kbps
Encoded date                             : UTC 2017-01-06 15:02:13
Writing application                      : mkvmerge v7.0.0 ('Where We Going') 32bit built on Jun  9 2014 15:08:34
Writing library                          : libebml v1.3.0 + libmatroska v1.4.1
DURATION                                 : 00:10:20.544000000
NUMBER_OF_FRAMES                         : 19392
NUMBER_OF_BYTES                          : 14893056
_STATISTICS_WRITING_APP                  : mkvmerge v7.0.0 ('Where We Going') 32bit built on Jun  9 2014 15:08:34
_STATISTICS_WRITING_DATE_UTC             : 2017-01-06 15:02:13
_STATISTICS_TAGS                         : BPS DURATION NUMBER_OF_FRAMES NUMBER_OF_BYTES
Video
ID                                       : 1
Format                                   : AVC
Format/Info                              : Advanced Video Codec
Format profile                           : [email protected]
Format settings, CABAC                   : Yes
Format settings, ReFrames                : 8 frames
Codec ID                                 : V_MPEG4/ISO/AVC
Duration                                 : 10mn 20s
Bit rate                                 : 2 700 Kbps
Width                                    : 720 pixels
Height                                   : 480 pixels
Display aspect ratio                     : 4:3
Original display aspect ratio            : 4:3
Frame rate mode                          : Constant
Frame rate                               : 23.976 fps
Standard                                 : NTSC
Color space                              : YUV
Chroma subsampling                       : 4:2:0
Bit depth                                : 8 bits
Scan type                                : Progressive
Bits/(Pixel*Frame)                       : 0.326
Stream size                              : 196 MiB (91%)
Title                                    : Синяя борода / Bluebeard / Barbe-bleue (1901) DVDRip-AVC
Writing library                          : x264 core 148 r2638 7599210
Encoding settings                        : cabac=1 / ref=8 / deblock=1:-1:-1 / analyse=0x3:0x113 / me=umh / subme=11 / psy=1 / psy_rd=1.05:0.05 / mixed_ref=1 / me_range=32 / chroma_me=1 / trellis=2 / 8x8dct=1 / cqm=0 / deadzone=21,11 / fast_pskip=1 / chroma_qp_offset=-5 / threads=9 / lookahead_threads=1 / sliced_threads=0 / nr=0 / decimate=1 / interlaced=0 / bluray_compat=0 / constrained_intra=0 / bframes=8 / b_pyramid=2 / b_adapt=1 / b_bias=0 / direct=1 / weightb=1 / open_gop=0 / weightp=2 / keyint=240 / keyint_min=23 / scenecut=40 / intra_refresh=0 / rc_lookahead=40 / rc=2pass / mbtree=1 / bitrate=2700 / ratetol=1.0 / qcomp=0.60 / qpmin=10 / qpmax=69 / qpstep=4 / cplxblur=20.0 / qblur=0.5 / vbv_maxrate=50000 / vbv_bufsize=62500 / nal_hrd=none / filler=0 / ip_ratio=1.40 / aq=1:1.00
Language                                 : French
Default                                  : Yes
Forced                                   : No
DURATION                                 : 00:10:20.745000000
NUMBER_OF_FRAMES                         : 14883
NUMBER_OF_BYTES                          : 209480245
_STATISTICS_WRITING_APP                  : mkvmerge v7.0.0 ('Where We Going') 32bit built on Jun  9 2014 15:08:34
_STATISTICS_WRITING_DATE_UTC             : 2017-01-06 15:02:13
_STATISTICS_TAGS                         : BPS DURATION NUMBER_OF_FRAMES NUMBER_OF_BYTES
Audio
ID                                       : 2
Format                                   : AC-3
Format/Info                              : Audio Coding 3
Mode extension                           : CM (complete main)
Format settings, Endianness              : Big
Codec ID                                 : A_AC3
Duration                                 : 10mn 20s
Bit rate mode                            : Constant
Bit rate                                 : 192 Kbps
Channel count                            : 2 channels
Channel positions                        : Front: L R
Sampling rate                            : 48.0 KHz
Bit depth                                : 16 bits
Compression mode                         : Lossy
Delay relative to video                  : 8ms
Stream size                              : 14.2 MiB (7%)
Language                                 : French
Default                                  : Yes
Forced                                   : No




Скачать Синяя борода через торрент http://img11.lostpic.net/2017/01/06/99a15200f66660f03aa49d9a544a4f4e.th.jpg Скачать, смотреть онлайн Синяя борода бесплантно в хорошем качестве Описание: Самая ранняя экранизация знаменитой сказки Шарля Перро. Молодая девушка становится восьмой женой Синей Бороды - богача, чьи ... 5.5 10 2
Info! Золотая раздача, скачанное не засчитывается.
Торрент: Зарегистрирован [2017-01-06 17:32] · скачан: 23 раз
Статус: √ проверено
Размер: 214 MB
Как cкачать? Как скачать Синяя борода через торрент | UTorrent

28-11-2019 20:33  


Отключить вcю реклaмy на сайте, в т.ч. и в плеере онлайн просмотра!

06-01-2017 23:40 Синяя борода Скачать торрент  

Если предыдущие восемь жен умерли, тогда она стала девятой женой?
Если же она стала восьмой женой, то предыдущие семь умерли?
Нипанятна.



    Дорогой пользователь! Огромная просьба, поблагодарите релизера, оцените раздачу и оставьте свои комментарий, если Вы скачали Синяя борода через торрент бесплатно!!
    Комментировать посты могут только пользователи прошедшие не сложную регистрацию
    Показать сообщения:    


    Синяя борода через торрент
    Скачать бесплатно Синяя борода
    Синяя борода скачать торрент
    Синяя борода смотреть онлайн
    Cкачать фильм Синяя борода бесплатно
    Синяя борода скачать торрент в хорошем качестве
    Синяя борода смотреть онлайн бесплатно в хорошем качестве
    Вы не можете начинать темы
    Вы не можете отвечать на сообщения
    Вы не можете редактировать свои сообщения
    Вы не можете удалять свои сообщения
    Вы не можете голосовать в опросах
    Вы не можете прикреплять файлы к сообщениям
    Вы можете скачивать файлы
    Синяя борода / Bluebeard / Barbe-bleue [1901, короткометражка, фэнтези, ужасы, DVDRip-AVC] смотреть онлайн, скачать торрент picoco.icu