Доктор Стрэндж

Лицензия

Добыча

Дубляж

Дом дракона

1 сезон

Тор

Дубляж

В эфире

Дубляж

Там, где раки поют

MVO

Властелин колец

1 сезон

GLOBAL

pack

Рекомендуем

30

Пиратка

ВАЖНО

ВАЖНО

Ghostwire

Пиратка

jed

RePack

nioh2

RePack

RDR2

RePack

NEED FOR SPEED™ PAYBACK

RePack

скачать торрент

Кинопоиск HD

Острые козырьки 6 сезон

6 сезон

FAR CRY 6

RePack

скачать торрент

Лицензия

скачать торрент

MVO

1

1 сезон

скачать торрент

1 сезон

скачать торрент

Лицензия

  

Близко / Close (Вики Джуисон) [2019, боевик, триллер, WEBRip-AVC] MVO [HDRezka]

Близко через торрент 2022.piratbit.fun

Размер: 1.6 GB | Добавлен: 3 года 9 мес. назад | Торрент скачан:293 раза
Смотреть онлайн | Скачать   

21-02-2019 08:20 Близко Скачать торрент  

Близко / Close Год выпуска: 2019
Страна: Великобритания, США
Жанр: боевик, триллер
Продолжительность: 01:34:38
Перевод: Профессиональный (многоголосый) | HDRezka
Субтитры: Английские (форс., SDH)

Режиссер: Вики Джуисон

rating

В ролях:

Нуми Рапас, Индира Варма, Софи Нелисс, Оуэн Мэкен, Чарли Палмер Ротуэлл, Акин Гази, Хув Парментер, Джордж Джорджиу, Кристофер Сиуреф, Оливия Джуисон

Описание:

Сюжет повествует об эксперте по безопасности Сэм, которую нанимает богатая семья, чтобы она защитила Зои, избалованную наследницу их бизнес-империи. Вскоре на девушку открывают настоящую охоту, и Сэм остается ее единственным шансом на выживание.

Качество: WEBRip-AVC
Формат: MKV

Видео: 1024x428 (2.40:1), 24,000 fps, x264 ~1 783 kbps avg, 0.170 bit/pixel
Аудио#1: 48 kHz, AC3 Dolby Digital, 2 (L,R) ch, ~192.00 kbps avg | RUS (HDRezka)
Аудио#2: 48 kHz, AC3 Dolby Digital, 3/2 (L,C,R,l,r) + LFE ch, ~448.00 kbps avg | ENG

Общее
Уникальный идентификатор : 267905830637383919969935926176454598901 (0xC98CC9412126EB6B02483BD38474E0F5)
Полное имя : F:OlLanDGroupClose.2019.NF.WEBRip(AVC).OlLanDGroup.mkv
Формат : Matroska
Версия формата : Version 4 / Version 2
Размер файла : 1,60 Гбайт
Продолжительность : 1 ч. 34 м.
Общий поток : 2423 Кбит/сек
Название фильма : Close.2019 #TorpeoUK#
Дата кодирования : UTC 2019-02-21 07:46:41
Программа кодирования : mkvmerge v29.0.0 ('Like It Or Not') 64-bit
Библиотека кодирования : libebml v1.3.6 + libmatroska v1.4.9

Видео
Идентификатор : 1
Формат : AVC
Формат/Информация : Advanced Video Codec
Профиль формата : [email protected]
Параметр CABAC формата : Да
Параметр ReFrames формата : 10 кадров
Идентификатор кодека : V_MPEG4/ISO/AVC
Продолжительность : 1 ч. 34 м.
Битрейт : 1783 Кбит/сек
Ширина : 1024 пикселя
Высота : 428 пикселей
Соотношение сторон : 2,40:1
Режим частоты кадров : Постоянный
Частота кадров : 24,000 кадра/сек
Цветовое пространство : YUV
Субдискретизация насыщенности : 4:2:0
Битовая глубина : 8 бит
Тип развёртки : Прогрессивная
Бит/(Пиксели*Кадры) : 0.170
Размер потока : 1,18 Гбайт (74%)
Библиотека кодирования : x264 core 146 r2538 121396c
Настройки программы : cabac=1 / ref=10 / deblock=1:-3:-3 / analyse=0x3:0x113 / me=umh / subme=10 / psy=1 / psy_rd=0.99:0.04 / mixed_ref=1 / me_range=48 / chroma_me=1 / trellis=2 / 8x8dct=1 / cqm=0 / deadzone=21,11 / fast_pskip=1 / chroma_qp_offset=-3 / threads=6 / lookahead_threads=1 / sliced_threads=0 / nr=0 / decimate=1 / interlaced=0 / bluray_compat=0 / constrained_intra=0 / bframes=11 / b_pyramid=2 / b_adapt=2 / b_bias=0 / direct=3 / weightb=1 / open_gop=0 / weightp=2 / keyint=240 / keyint_min=24 / scenecut=40 / intra_refresh=0 / rc_lookahead=40 / rc=2pass / mbtree=0 / bitrate=1783 / ratetol=1.0 / qcomp=0.60 / qpmin=0 / qpmax=69 / qpstep=4 / cplxblur=20.0 / qblur=0.5 / vbv_maxrate=50000 / vbv_bufsize=62500 / nal_hrd=none / filler=0 / ip_ratio=1.40 / pb_ratio=1.30 / aq=1:1.00
Язык : English
Default : Да
Forced : Нет

Аудио #1
Идентификатор : 2
Формат : AC-3
Формат/Информация : Audio Coding 3
Расширение режима : CM (complete main)
Параметр Endianness формата : Big
Идентификатор кодека : A_AC3
Продолжительность : 1 ч. 34 м.
Вид битрейта : Постоянный
Битрейт : 192 Кбит/сек
Каналы : 2 канала
Расположение каналов : Front: L R
Частота : 48,0 КГц
Частота кадров : 31,250 кадров/сек (1536 spf)
Битовая глубина : 16 бит
Метод сжатия : С потерями
Размер потока : 130 Мбайт (8%)
Заголовок : MVO [HDRezka]
Язык : Russian
Default : Да
Forced : Нет

Аудио #2
Идентификатор : 3
Формат : AC-3
Формат/Информация : Audio Coding 3
Расширение режима : CM (complete main)
Параметр Endianness формата : Big
Идентификатор кодека : A_AC3
Продолжительность : 1 ч. 34 м.
Вид битрейта : Постоянный
Битрейт : 448 Кбит/сек
Каналы : 6 каналов
Расположение каналов : Front: L C R, Side: L R, LFE
Частота : 48,0 КГц
Частота кадров : 31,250 кадров/сек (1536 spf)
Битовая глубина : 16 бит
Метод сжатия : С потерями
Размер потока : 303 Мбайт (18%)
Заголовок : [Original]
Язык : English
Default : Нет
Forced : Нет

Текст #1
Идентификатор : 4
Формат : UTF-8
Идентификатор кодека : S_TEXT/UTF8
Идентификатор кодека/Информация : UTF-8 Plain Text
Продолжительность : 32 м. 14 с.
Битрейт : 2 бит/сек
Count of elements : 16
Размер потока : 563 байт (0%)
Заголовок : English [Forced]
Язык : English
Default : Нет
Forced : Нет

Текст #2
Идентификатор : 5
Формат : UTF-8
Идентификатор кодека : S_TEXT/UTF8
Идентификатор кодека/Информация : UTF-8 Plain Text
Продолжительность : 1 ч. 33 м.
Битрейт : 48 бит/сек
Count of elements : 1139
Размер потока : 32,9 Кбайт (0%)
Заголовок : English [SDH]
Язык : English
Default : Нет
Forced : Нет




Скачать Близко через торрент https://st-kp-yandex-net.translate.goog/images/film_iphone/iphone360_1046438.jpg Скачать, смотреть онлайн Близко бесплантно в хорошем качестве Описание: Сюжет повествует об эксперте по безопасности Сэм, которую нанимает богатая семья, чтобы она защитила Зои, избалованную наследницу ... 9.5 10 10
Торрент: Зарегистрирован [2019-02-21 08:20] · скачан: 293 раз
Статус: √ проверено
Размер: 1.6 GB
Как cкачать? Как скачать Близко через торрент | UTorrent

% Раздел Тема Автор DL S | L
Фильмы 2019-2020 [DVDrip, WEB-DLRip, HDrip] (DUB, MVO) [ 1.46 GB ] Близко / Close | HDRezka Studio | BDRip Twi7ter Скачать
1 | 0
T Фильмы (Blu-ray, BD-Remux, HDDVD) [ 14.55 GB ] Близко / Close | HDRezka Studio | 1080p sheker187 Скачать
1 | 0
Фильмы 2019-2020 [DVDrip, WEB-DLRip, HDrip] (DUB, MVO) [ 1.46 GB ] Близко / Close | HDRezka Studio | BDRip bober100 Скачать
1 | 0
Фильмы (WEB-DL 720p, 1080p) [ 3.07 GB ] Близко / Close | HDRezka Studio | 1080p bober100 Скачать
1 | 0

28-11-2019 20:33  


Отключить вcю реклaмy на сайте, в т.ч. и в плеере онлайн просмотра!

    Дорогой пользователь! Огромная просьба, поблагодарите релизера, оцените раздачу и оставьте свои комментарий, если Вы скачали Близко через торрент бесплатно!!
    Комментировать посты могут только пользователи прошедшие не сложную регистрацию
    Показать сообщения:    


    Близко через торрент
    Скачать бесплатно Близко
    Близко скачать торрент
    Близко смотреть онлайн
    Cкачать фильм Близко бесплатно
    Близко скачать торрент в хорошем качестве
    Близко смотреть онлайн бесплатно в хорошем качестве
    Вы не можете начинать темы
    Вы не можете отвечать на сообщения
    Вы не можете редактировать свои сообщения
    Вы не можете удалять свои сообщения
    Вы не можете голосовать в опросах
    Вы не можете прикреплять файлы к сообщениям
    Вы можете скачивать файлы
    Близко / Close [2019, боевик, триллер, WEBRip-AVC] MVO [HDRezka] смотреть онлайн, скачать торрент picoco.icu