Доктор Стрэндж

Лицензия

Добыча

Дубляж

Дом дракона

1 сезон

Тор

Дубляж

В эфире

Дубляж

Там, где раки поют

MVO

Властелин колец

1 сезон

GLOBAL

pack

Рекомендуем

30

Пиратка

ВАЖНО

ВАЖНО

Ghostwire

Пиратка

jed

RePack

nioh2

RePack

RDR2

RePack

NEED FOR SPEED™ PAYBACK

RePack

скачать торрент

Кинопоиск HD

Острые козырьки 6 сезон

6 сезон

FAR CRY 6

RePack

скачать торрент

Лицензия

скачать торрент

MVO

1

1 сезон

скачать торрент

1 сезон

скачать торрент

Лицензия

  

Ио / IO (Джонатан Элпер) [2019, фантастика, драма, мелодрама, приключения, WEBRip-AVC] MVO [HDRezka]

Ио через торрент 2022.piratbit.fun

Размер: 1.59 GB | Добавлен: 3 года 9 мес. назад | Торрент скачан:1489 раз
Смотреть онлайн | Скачать   

24-02-2019 04:33 Ио Скачать торрент  

Ио / IO Год выпуска: 2019
Страна: США
Жанр: фантастика, драма, мелодрама, приключения
Продолжительность: 01:36:02
Перевод: Любительский (многоголосый) | HDRezka
Субтитры: Русские (полные), Английские (полные)

Режиссер: Джонатан Элпер

rating

В ролях:

Маргарет Куэлли, Энтони Маки, Дэнни Хьюстон

Описание:

Земля стала необитаемой и всё человечество переселилось на спутник Юпитера - Ио. На родной планете почти никого не осталось, кроме одинокой Сэм, которая надеется найти способ спасти Землю. Но появление ещё одного выжившего заставляет её пересмотреть свои планы.

Качество: WEBRip-AVC
Формат: MKV

Видео: 1024x426 (2.40:1), 24,000 fps, x264 ~1 794 kbps avg, 0.171 bit/pixel
Аудио#1: 48 kHz, AC3 Dolby Digital, 2 (L,R) ch, ~192.00 kbps avg | RUS (HDRezka)
Аудио#2: 48 kHz, AC3 Dolby Digital, 3/2 (L,C,R,l,r) + LFE ch, ~384.00 kbps avg | ENG

Общее
Уникальный идентификатор : 269624844522905449771585290982483239245 (0xCAD7DB2EBA03C7605F1BC2E2FEF3214D)
Полное имя : F:OlLanDGroupIO.2019..NF.WEBRip(AVC).OlLanDGroup.mkv
Формат : Matroska
Версия формата : Version 4 / Version 2
Размер файла : 1,59 Гбайт
Продолжительность : 1 ч. 36 м.
Общий поток : 2366 Кбит/сек
Название фильма : IO.2019 #TorpedoUK#
Дата кодирования : UTC 2019-02-24 01:58:22
Программа кодирования : mkvmerge v29.0.0 ('Like It Or Not') 64-bit
Библиотека кодирования : libebml v1.3.6 + libmatroska v1.4.9

Видео
Идентификатор : 1
Формат : AVC
Формат/Информация : Advanced Video Codec
Профиль формата : [email protected]
Параметр CABAC формата : Да
Параметр ReFrames формата : 10 кадров
Идентификатор кодека : V_MPEG4/ISO/AVC
Продолжительность : 1 ч. 36 м.
Битрейт : 1794 Кбит/сек
Ширина : 1024 пикселя
Высота : 426 пикселей
Соотношение сторон : 2,40:1
Режим частоты кадров : Постоянный
Частота кадров : 24,000 кадра/сек
Цветовое пространство : YUV
Субдискретизация насыщенности : 4:2:0
Битовая глубина : 8 бит
Тип развёртки : Прогрессивная
Бит/(Пиксели*Кадры) : 0.171
Размер потока : 1,20 Гбайт (76%)
Библиотека кодирования : x264 core 146 r2538 121396c
Настройки программы : cabac=1 / ref=10 / deblock=1:-2:-3 / analyse=0x3:0x113 / me=umh / subme=10 / psy=1 / psy_rd=0.95:0.07 / mixed_ref=1 / me_range=48 / chroma_me=1 / trellis=2 / 8x8dct=1 / cqm=0 / deadzone=21,11 / fast_pskip=1 / chroma_qp_offset=-3 / threads=6 / lookahead_threads=1 / sliced_threads=0 / nr=0 / decimate=1 / interlaced=0 / bluray_compat=0 / constrained_intra=0 / bframes=11 / b_pyramid=2 / b_adapt=2 / b_bias=0 / direct=3 / weightb=1 / open_gop=0 / weightp=2 / keyint=240 / keyint_min=24 / scenecut=40 / intra_refresh=0 / rc_lookahead=40 / rc=2pass / mbtree=0 / bitrate=1794 / ratetol=1.0 / qcomp=0.60 / qpmin=0 / qpmax=69 / qpstep=4 / cplxblur=20.0 / qblur=0.5 / vbv_maxrate=50000 / vbv_bufsize=62500 / nal_hrd=none / filler=0 / ip_ratio=1.40 / pb_ratio=1.30 / aq=1:1.00
Язык : English
Default : Да
Forced : Нет

Аудио #1
Идентификатор : 2
Формат : AC-3
Формат/Информация : Audio Coding 3
Расширение режима : CM (complete main)
Параметр Endianness формата : Big
Идентификатор кодека : A_AC3
Продолжительность : 1 ч. 36 м.
Вид битрейта : Постоянный
Битрейт : 192 Кбит/сек
Каналы : 2 канала
Расположение каналов : Front: L R
Частота : 48,0 КГц
Частота кадров : 31,250 кадров/сек (1536 spf)
Битовая глубина : 16 бит
Метод сжатия : С потерями
Размер потока : 132 Мбайт (8%)
Заголовок : MVO [HDRezka]
Язык : Russian
Default : Да
Forced : Нет

Аудио #2
Идентификатор : 3
Формат : AC-3
Формат/Информация : Audio Coding 3
Расширение режима : CM (complete main)
Параметр Endianness формата : Big
Идентификатор кодека : A_AC3
Продолжительность : 1 ч. 36 м.
Вид битрейта : Постоянный
Битрейт : 384 Кбит/сек
Каналы : 6 каналов
Расположение каналов : Front: L C R, Side: L R, LFE
Частота : 48,0 КГц
Частота кадров : 31,250 кадров/сек (1536 spf)
Битовая глубина : 16 бит
Метод сжатия : С потерями
Размер потока : 264 Мбайт (16%)
Заголовок : [Original]
Язык : English
Default : Нет
Forced : Нет

Текст #1
Идентификатор : 4
Формат : UTF-8
Идентификатор кодека : S_TEXT/UTF8
Идентификатор кодека/Информация : UTF-8 Plain Text
Продолжительность : 1 ч. 34 м.
Битрейт : 48 бит/сек
Count of elements : 716
Размер потока : 34,0 Кбайт (0%)
Заголовок : Full
Язык : Russian
Default : Нет
Forced : Нет

Текст #2
Идентификатор : 5
Формат : UTF-8
Идентификатор кодека : S_TEXT/UTF8
Идентификатор кодека/Информация : UTF-8 Plain Text
Продолжительность : 1 ч. 28 м.
Битрейт : 34 бит/сек
Count of elements : 759
Размер потока : 22,3 Кбайт (0%)
Заголовок : Full
Язык : English
Default : Нет
Forced : Нет




Скачать Ио через торрент https://i.ibb.co/WGVdzxM/Zcvjtd-Tcv4p-PG5-I6-ESLE7-TLzfty-HZLv-GMno-RZF4-YC6t3gg-If-YI25-Sr-Fd-Vvr-Cvc-WNr-PPic-Ix-JOAPQnk-P1.webp Скачать, смотреть онлайн Ио бесплантно в хорошем качестве Описание: Земля стала необитаемой и всё человечество переселилось на спутник Юпитера - Ио. На родной планете почти никого не осталось, ... 8.8 10 20
Торрент: Зарегистрирован [2019-02-24 04:33] · скачан: 1 489 раз
Статус: √ проверено
Размер: 1.59 GB
Как cкачать? Как скачать Ио через торрент | UTorrent

% Раздел Тема Автор DL S | L
Фильмы (WEB-DL 720p, 1080p) [ 4.98 GB ] Ио / IO | HDRezka Studio | 1080p bober100 Скачать
2 | 0
Фильмы без перевода [ 4.85 GB ] ИО / IO | | 1080p killermax2013 Скачать
1 | 0

28-11-2019 20:33  


Отключить вcю реклaмy на сайте, в т.ч. и в плеере онлайн просмотра!

28-02-2019 07:59 Ио Скачать торрент  

Чодакак?



09-03-2019 16:12 Ио Скачать торрент  

sven4ik писал(а):

Чодакак?

час глянем



10-03-2019 11:15 Ио Скачать торрент  

пойдёт



    Дорогой пользователь! Огромная просьба, поблагодарите релизера, оцените раздачу и оставьте свои комментарий, если Вы скачали Ио через торрент бесплатно!!
    Комментировать посты могут только пользователи прошедшие не сложную регистрацию
    Показать сообщения:    


    Ио через торрент
    Скачать бесплатно Ио
    Ио скачать торрент
    Ио смотреть онлайн
    Cкачать фильм Ио бесплатно
    Ио скачать торрент в хорошем качестве
    Ио смотреть онлайн бесплатно в хорошем качестве
    Вы не можете начинать темы
    Вы не можете отвечать на сообщения
    Вы не можете редактировать свои сообщения
    Вы не можете удалять свои сообщения
    Вы не можете голосовать в опросах
    Вы не можете прикреплять файлы к сообщениям
    Вы можете скачивать файлы
    Ио / IO [2019, фантастика, драма, мелодрама, приключения, WEBRip-AVC] MVO [HDRezka] смотреть онлайн, скачать торрент picoco.icu