Доктор Стрэндж

Лицензия

Добыча

Дубляж

Дом дракона

1 сезон

Тор

Дубляж

В эфире

Дубляж

Там, где раки поют

MVO

Властелин колец

1 сезон

Deluxe

pack

Рекомендуем

30

Пиратка

ВАЖНО

ВАЖНО

Ghostwire

Пиратка

jed

RePack

nioh2

RePack

RDR2

RePack

NEED FOR SPEED™ PAYBACK

RePack

скачать торрент

Кинопоиск HD

Острые козырьки 6 сезон

6 сезон

FAR CRY 6

RePack

скачать торрент

Лицензия

скачать торрент

MVO

1

1 сезон

скачать торрент

1 сезон

скачать торрент

Лицензия

  

Стекло / Glass (М. Найт Шьямалан) [2019, фантастика, триллер, драма, BDRip-AVC] MVO [HDRezka]

Стекло через торрент 2022.piratbit.fun

Размер: 2.36 GB | Добавлен: 3 года 7 мес. назад | Торрент скачан:625 раз
Смотреть онлайн | Скачать   

09-04-2019 11:00 Стекло Скачать торрент  

Стекло / Glass«Дай волю своим демонам»

Год выпуска: 2019
Страна: США
Жанр: фантастика, триллер, драма
Продолжительность: 02:09:01
Перевод: Профессиональный многоголосый
Субтитры: Английские
Режиссер: М. Найт Шьямалан
В ролях:
Джеймс МакЭвой (Patricia / Dennis / Hedwig / The Beast / Barry / Heinrich / Jade / Ian / Mary Reynolds / Norma / Jalin / Kat / B.T. / Kevin Wendell Crumb / Mr. Pritchard / Felida / Luke / Goddard / Samuel / Polly), Брюс Уиллис (David Dunn), Сэмюэл Л. Джексон (Elijah Price), Аня Тейлор-Джой (Casey Cooke), Сара Полсон (Dr. Ellie Staple), Спенсер Трит Кларк (Joseph Dunn), Чарлэйн Вудард (Mrs. Price), Люк Кирби (Pierce), Адам Дэвид Томпсон (Daryl), М. Найт Шьямалан (Jai, Security Guard), Шеннон Дестини Райан (Cheerleading Girl), Диана Сильверс (Cheerleading Girl)
Описание:
В поисках встречи с обладающим фантастическими способностями и снова убивающем девушек Зверем Дэвид Данн выходит на след Кевина Крамба. Но решающая схватка не успевает состояться, наших героев ловят и отправляют в психиатрическую больницу. Там уже содержится хрупкий человек Элайджа Прайс, несколько лет назад устроивший крушение поезда, единственным выжившим в котором оказался Дэвид. Психиатр Элли Стэйпл пытается убедить этих трёх пациентов, что они не обладают сверхспособностями, и всему можно найти рациональное объяснение.
Рейтинг:

MPAA: PG-13 - Детям до 13 лет просмотр не желателен
Качество: BDRip-AVC
Формат: MKV
Видео: MPEG-4 AVC, 1779 Kбит/с, 1024x428, 0.169
Аудио №1: русский / AC3, 2 ch, 192 Кбит/с - Профессиональное многоголосое [HDRezka]
Аудио №2: украинский / AC3, 2 ch, 192 Кбит/с - Профессиональный (дублированный) [Line, Украинский]
Аудио №3: английский / AC3, 6 ch, 448 Кбит/с
Навигация по главам: есть
***Релиз без рекламы!!!***

General
Unique ID : 163418002960515392052972751259978422920 (0x7AF1299BEADF9CAEDCA50B624223DA88)
Complete name : I:\Glass.2019.BDRip.AVC.Rus.Ukr.Eng.mkv
Format : Matroska
Format version : Version 4
File size : 2.36 GiB
Duration : 2 h 9 min
Overall bit rate : 2 613 kb/s
Encoded date : UTC 2019-04-09 08:12:53
Writing application : mkvmerge v32.0.0 ('Astral Progressions') 64-bit
Writing library : libebml v1.3.7 + libmatroska v1.5.0

Video
ID : 1
Format : AVC
Format/Info : Advanced Video Codec
Format profile : [email protected]
Format settings : CABAC / 9 Ref Frames
Format settings, CABAC : Yes
Format settings, ReFrames : 9 frames
Codec ID : V_MPEG4/ISO/AVC
Duration : 2 h 9 min
Bit rate : 1 779 kb/s
Width : 1 024 pixels
Height : 428 pixels
Display aspect ratio : 2.40:1
Frame rate mode : Constant
Frame rate : 23.976 (24000/1001) FPS
Color space : YUV
Chroma subsampling : 4:2:0
Bit depth : 8 bits
Scan type : Progressive
Bits/(Pixel*Frame) : 0.169
Stream size : 1.60 GiB (68%)
Writing library : x264 core 142 r2431 ac76440
Encoding settings : cabac=1 / ref=9 / deblock=1:-1:-1 / analyse=0x3:0x113 / me=umh / subme=11 / psy=1 / psy_rd=1.00:0.15 / mixed_ref=1 / me_range=48 / chroma_me=1 / trellis=2 / 8x8dct=1 / cqm=0 / deadzone=21,11 / fast_pskip=0 / chroma_qp_offset=-5 / threads=12 / lookahead_threads=2 / sliced_threads=0 / nr=0 / decimate=1 / interlaced=0 / bluray_compat=0 / constrained_intra=0 / bframes=8 / b_pyramid=2 / b_adapt=2 / b_bias=0 / direct=1 / weightb=1 / open_gop=0 / weightp=2 / keyint=240 / keyint_min=23 / scenecut=40 / intra_refresh=0 / rc_lookahead=60 / rc=2pass / mbtree=1 / bitrate=1779 / ratetol=1.0 / qcomp=0.60 / qpmin=10 / qpmax=69 / qpstep=4 / cplxblur=20.0 / qblur=0.5 / vbv_maxrate=50000 / vbv_bufsize=62500 / nal_hrd=none / filler=0 / ip_ratio=1.40 / aq=1:1.00
Language : English
Default : Yes
Forced : No

Audio #1
ID : 2
Format : AC-3
Format/Info : Audio Coding 3
Commercial name : Dolby Digital
Codec ID : A_AC3
Duration : 2 h 9 min
Bit rate mode : Constant
Bit rate : 192 kb/s
Channel(s) : 2 channels
Channel layout : L R
Sampling rate : 48.0 kHz
Frame rate : 31.250 FPS (1536 SPF)
Bit depth : 16 bits
Compression mode : Lossy
Stream size : 177 MiB (7%)
Title : HDRezka
Language : Russian
Service kind : Complete Main
Default : Yes
Forced : Yes

Audio #2
ID : 3
Format : AC-3
Format/Info : Audio Coding 3
Commercial name : Dolby Digital
Codec ID : A_AC3
Duration : 2 h 9 min
Bit rate mode : Constant
Bit rate : 192 kb/s
Channel(s) : 2 channels
Channel layout : L R
Sampling rate : 48.0 kHz
Frame rate : 31.250 FPS (1536 SPF)
Bit depth : 16 bits
Compression mode : Lossy
Stream size : 177 MiB (7%)
Language : Ukrainian
Service kind : Complete Main
Default : No
Forced : No

Audio #3
ID : 4
Format : AC-3
Format/Info : Audio Coding 3
Commercial name : Dolby Digital
Codec ID : A_AC3
Duration : 2 h 9 min
Bit rate mode : Constant
Bit rate : 448 kb/s
Channel(s) : 6 channels
Channel layout : L R C LFE Ls Rs
Sampling rate : 48.0 kHz
Frame rate : 31.250 FPS (1536 SPF)
Bit depth : 16 bits
Compression mode : Lossy
Stream size : 413 MiB (17%)
Language : English
Service kind : Complete Main
Default : No
Forced : No

Text #1
ID : 5
Format : UTF-8
Codec ID : S_TEXT/UTF8
Codec ID/Info : UTF-8 Plain Text
Duration : 2 h 1 min
Bit rate : 43 b/s
Count of elements : 1197
Stream size : 38.9 KiB (0%)
Title : Full
Language : English
Default : No
Forced : No

Text #2
ID : 6
Format : UTF-8
Codec ID : S_TEXT/UTF8
Codec ID/Info : UTF-8 Plain Text
Duration : 2 h 2 min
Bit rate : 50 b/s
Count of elements : 1561
Stream size : 45.7 KiB (0%)
Title : SDH
Language : English
Default : No
Forced : No

Menu
00:00:00.000 : en:Chapter 01
00:04:08.457 : en:Chapter 02
00:09:36.367 : en:Chapter 03
00:14:30.078 : en:Chapter 04
00:19:49.897 : en:Chapter 05
00:24:41.063 : en:Chapter 06
00:29:45.826 : en:Chapter 07
00:35:00.598 : en:Chapter 08
00:39:07.595 : en:Chapter 09
00:47:28.220 : en:Chapter 10
00:57:16.224 : en:Chapter 11
01:02:55.271 : en:Chapter 12
01:09:26.829 : en:Chapter 13
01:14:30.299 : en:Chapter 14
01:21:43.774 : en:Chapter 15
01:30:10.530 : en:Chapter 16
01:38:15.515 : en:Chapter 17
01:44:08.742 : en:Chapter 18
01:54:07.215 : en:Chapter 19
02:03:00.290 : en:Chapter 20



Скачать Стекло через торрент https://st-kp-yandex-net.translate.goog/images/film_iphone/iphone360_1044601.jpg Скачать, смотреть онлайн Стекло бесплантно в хорошем качестве Описание: В поисках встречи с обладающим фантастическими способностями и снова убивающем девушек Зверем Дэвид Данн выходит на след Кевина ... 10 10 17
Торрент: Зарегистрирован [2019-04-09 11:00] · скачан: 625 раз
Статус: T временная
Размер: 2.36 GB
Как cкачать? Как скачать Стекло через торрент | UTorrent

% Раздел Тема Автор DL S | L
Фильмы 2019-2020 [DVDrip, WEB-DLRip, HDrip] (DUB, MVO) [ 2.98 GB ] Стекло / Glass | HDRezka Studio | BDRip-AVC Enigma2010 Скачать
7 | 1
Фильмы 2019-2020 [DVDrip, WEB-DLRip, HDrip] (DUB, MVO) [ 2.13 GB ] Стекло / Glass | Лицензия | BDRip Twi7ter Скачать
3 | 0
Фильмы (HD 720p, 1080p) (48-60 fps) [ 26.55 GB ] Стекло / Glass | iTunes | 1080p, 60 fps sheker187 Скачать
1 | 0
Ultra HD (UHD: 2K, 4K, 8K) [ 86.39 GB ] Стекло / Glass | iTunes | 2160p sheker187 Скачать
1 | 0
Ultra HD (UHD: 2K, 4K, 8K) [ 29.48 GB ] Стекло / Glass | HDRezka Studio | 2160p sheker187 Скачать
1 | 0
Ultra HD (UHD: 2K, 4K, 8K) [ 17.29 GB ] Стекло / Glass | HDRezka Studio | 2160p sheker187 Скачать
1 | 0
Фильмы [HD 720p, 1080p] (Хороший звук DUB, MVO) [ 9.87 GB ] Стекло / Glass | iTunes | 1080p bober100 Скачать
1 | 0

28-11-2019 20:33  


Отключить вcю реклaмy на сайте, в т.ч. и в плеере онлайн просмотра!

    Дорогой пользователь! Огромная просьба, поблагодарите релизера, оцените раздачу и оставьте свои комментарий, если Вы скачали Стекло через торрент бесплатно!!
    Комментировать посты могут только пользователи прошедшие не сложную регистрацию
    Показать сообщения:    


    Стекло через торрент
    Скачать бесплатно Стекло
    Стекло скачать торрент
    Стекло смотреть онлайн
    Cкачать фильм Стекло бесплатно
    Стекло скачать торрент в хорошем качестве
    Стекло смотреть онлайн бесплатно в хорошем качестве
    Вы не можете начинать темы
    Вы не можете отвечать на сообщения
    Вы не можете редактировать свои сообщения
    Вы не можете удалять свои сообщения
    Вы не можете голосовать в опросах
    Вы не можете прикреплять файлы к сообщениям
    Вы можете скачивать файлы
    Стекло / Glass [2019, фантастика, триллер, драма, BDRip-AVC] MVO [HDRezka] смотреть онлайн, скачать торрент picoco.icu