Доктор Стрэндж

Лицензия

Добыча

Дубляж

Уэнсдэй

1 сезон

Тор

Дубляж

В эфире

Дубляж

Там, где раки поют

MVO

Властелин колец

1 сезон

Deluxe

pack

Рекомендуем

30

Пиратка

ВАЖНО

ВАЖНО

Ghostwire

Пиратка

jed

RePack

nioh2

RePack

RDR2

RePack

NEED FOR SPEED™ PAYBACK

RePack

скачать торрент

Кинопоиск HD

Острые козырьки 6 сезон

6 сезон

FAR CRY 6

RePack

скачать торрент

Лицензия

скачать торрент

MVO

1

1 сезон

скачать торрент

1 сезон

скачать торрент

Лицензия

  

Клаустрофобы / Escape Room (Адам Робител) [2019, триллер, BDRip-AVC] Дубляж [Лицензия] - ExKinoRay

Клаустрофобы через торрент 2022.piratbit.fun

Раздают: 33 [ 58 KB/s ] Качают: 1 [ 0 KB/s ]
Размер: 2.09 GB | Добавлен: 3 года 6 мес. назад | Торрент скачан:668 раз
Смотреть онлайн | Скачать   

14-04-2019 23:16 Клаустрофобы Скачать торрент  

Название: Клаустрофобы
Оригинальное название: Escape Room
Год выпуска: 2019
Жанр: Триллер
Режиссер: Адам Робител
В ролях: Тейлор Расселл, Логан Миллер, Джей Эллис, Тайлер Лабин, Дебора Энн Уолл, Ник Додани, Йорик ван Вагенинген, Корнелиус Джини мл., Рассел Кроус, Барт Фаш

Описание:
Получив от таинственной организации приглашение сыграть в квест, победитель которого получит солидную сумму, шестеро незнакомых между собой людей решают попытать удачу. Но совсем скоро им становится понятно, что их выбрали для игры не случайно, задания не такие безобидные, и им грозит вполне реальная опасность, а ставка в игре - их собственные жизни.



Страна: Канада, США
Студия: Original Film
Продолжительность: 01:39:37
Перевод: Дублированный | Лицензия

Субтитры: Русские, английские

Формат: MKV
Качество: BDRip-AVC
Видео: MPEG-4 AVC, 1024x428 (2.40:1), 23.976 fps, 1656 Kbps, 0.158 bit/pixel
Аудио #01: 48 kHz, AC3, 5.1, 448 Kbps | Дублированный | RUS |
Аудио #02: 48 kHz, AC3, 5.1, 448 Kbps | Дублированный | UKR |
Аудио #03: 48 kHz, AC3, 5.1, 448 Kbps | Оригинал | ENG |
General
Unique ID : 227449125796117155748222638810538142670 (0xAB1D1BB446AAD659B0E24DA3A7676BCE)
Complete name : D:\Escape.Room.2019.BDRip.AVC.ExKinoRay.mkv
Format : Matroska
Format version : Version 2
File size : 2.09 GiB
Duration : 1 h 39 min
Overall bit rate : 3 002 kb/s
Movie name : Escape Room (2019) from ExKinoRay
Encoded date : UTC 2019-05-06 04:36:33
Writing application : mkvmerge v5.6.0 ('Kenya Kane') built on May 27 2012 16:44:04
Writing library : libebml v1.2.3 + libmatroska v1.3.0
Attachments : front.jpg

Video
ID : 1
Format : AVC
Format/Info : Advanced Video Codec
Format profile : [email protected]
Format settings, CABAC : Yes
Format settings, ReFrames : 12 frames
Codec ID : V_MPEG4/ISO/AVC
Duration : 1 h 39 min
Bit rate : 1 656 kb/s
Width : 1 024 pixels
Height : 428 pixels
Display aspect ratio : 2.40:1
Frame rate mode : Constant
Frame rate : 23.976 (23976/1000) FPS
Color space : YUV
Chroma subsampling : 4:2:0
Bit depth : 8 bits
Scan type : Progressive
Bits/(Pixel*Frame) : 0.158
Stream size : 1.11 GiB (53%)
Title : Enigma
Writing library : x264 core 152 r2851 ba24899
Encoding settings : cabac=1 / ref=12 / deblock=1:-2:-2 / analyse=0x3:0x113 / me=umh / subme=10 / psy=1 / psy_rd=1.02:0.07 / mixed_ref=1 / me_range=32 / chroma_me=1 / trellis=2 / 8x8dct=1 / cqm=0 / deadzone=21,11 / fast_pskip=0 / chroma_qp_offset=-3 / threads=12 / lookahead_threads=3 / sliced_threads=0 / nr=0 / decimate=0 / interlaced=0 / bluray_compat=0 / constrained_intra=0 / bframes=12 / b_pyramid=2 / b_adapt=2 / b_bias=0 / direct=3 / weightb=1 / open_gop=0 / weightp=2 / keyint=240 / keyint_min=23 / scenecut=40 / intra_refresh=0 / rc=2pass / mbtree=0 / bitrate=1656 / ratetol=1.0 / qcomp=0.70 / qpmin=0 / qpmax=51 / qpstep=4 / cplxblur=20.0 / qblur=0.5 / ip_ratio=1.30 / pb_ratio=1.20 / aq=2:0.90
Language : English
Default : Yes
Forced : No
Color range : Limited
Color primaries : BT.709
Transfer characteristics : BT.709
Matrix coefficients : BT.709

Audio #1
ID : 2
Format : AC-3
Format/Info : Audio Coding 3
Mode extension : CM (complete main)
Format settings, Endianness : Big
Codec ID : A_AC3
Duration : 1 h 39 min
Bit rate mode : Constant
Bit rate : 448 kb/s
Channel(s) : 6 channels
Channel positions : Front: L C R, Side: L R, LFE
Sampling rate : 48.0 kHz
Frame rate : 31.250 FPS (1536 spf)
Compression mode : Lossy
Stream size : 319 MiB (15%)
Title : Дубляж (Blu-Ray)
Language : Russian
Default : Yes
Forced : No

Audio #2
ID : 3
Format : AC-3
Format/Info : Audio Coding 3
Mode extension : CM (complete main)
Format settings, Endianness : Big
Codec ID : A_AC3
Duration : 1 h 39 min
Bit rate mode : Constant
Bit rate : 448 kb/s
Channel(s) : 6 channels
Channel positions : Front: L C R, Side: L R, LFE
Sampling rate : 48.0 kHz
Frame rate : 31.250 FPS (1536 spf)
Compression mode : Lossy
Stream size : 319 MiB (15%)
Language : Ukrainian
Default : No
Forced : No

Audio #3
ID : 4
Format : AC-3
Format/Info : Audio Coding 3
Mode extension : CM (complete main)
Format settings, Endianness : Big
Codec ID : A_AC3
Duration : 1 h 39 min
Bit rate mode : Constant
Bit rate : 448 kb/s
Channel(s) : 6 channels
Channel positions : Front: L C R, Side: L R, LFE
Sampling rate : 48.0 kHz
Frame rate : 31.250 FPS (1536 spf)
Compression mode : Lossy
Stream size : 319 MiB (15%)
Language : English
Default : No
Forced : No

Text #1
ID : 5
Format : UTF-8
Codec ID : S_TEXT/UTF8
Codec ID/Info : UTF-8 Plain Text
Title : Forced
Language : Russian
Default : Yes
Forced : No

Text #2
ID : 6
Format : UTF-8
Codec ID : S_TEXT/UTF8
Codec ID/Info : UTF-8 Plain Text
Title : Full
Language : Russian
Default : No
Forced : No

Text #3
ID : 7
Format : UTF-8
Codec ID : S_TEXT/UTF8
Codec ID/Info : UTF-8 Plain Text
Title : Full
Language : English
Default : No
Forced : No

Text #4
ID : 8
Format : UTF-8
Codec ID : S_TEXT/UTF8
Codec ID/Info : UTF-8 Plain Text
Title : SDH
Language : English
Default : No
Forced : No

Menu
00:00:00.000 : en:00:00:00.000
00:04:36.026 : en:00:04:36.026
00:09:25.648 : en:00:09:25.648
00:14:08.765 : en:00:14:08.765
00:19:46.102 : en:00:19:46.102
00:25:55.220 : en:00:25:55.220
00:33:08.945 : en:00:33:08.945
00:37:27.162 : en:00:37:27.162
00:43:05.082 : en:00:43:05.082
00:50:06.170 : en:00:50:06.170
00:53:58.569 : en:00:53:58.569
01:03:15.291 : en:01:03:15.291
01:09:07.894 : en:01:09:07.894
01:16:14.695 : en:01:16:14.695
01:22:48.755 : en:01:22:48.755
01:30:27.881 : en:01:30:27.881
Релиз от: VK релиз-группы

Автор релиза: Enigma



Скачать Клаустрофобы через торрент https://st-kp-yandex-net.translate.goog/images/film_iphone/iphone360_1065805.jpg Скачать, смотреть онлайн Клаустрофобы бесплантно в хорошем качестве Описание: Получив от таинственной организации приглашение сыграть в квест, победитель которого получит солидную сумму, шестеро незнакомых ... 9.9 10 23
Info! Золотая раздача, скачанное не засчитывается.
Торрент: Зарегистрирован [2019-05-06 04:56] · скачан: 668 раз
Статус: √ проверено
Размер: 2.09 GB
Как cкачать? Как скачать Клаустрофобы через торрент | UTorrent

% Раздел Тема Автор DL S | L
Фильмы 2021 [DVDrip, WEB-DLRip, HDrip] (DUB, MVO) [ 2.04 GB ] Клаустрофобы 2: Лига выживших / Escape Room: Tournament of Champions | Лицензия | Extended Cut | BDRip-AVC Lithuania Скачать
2 | 0
Фильмы 2019-2020 [DVDrip, WEB-DLRip, HDrip] (DUB, MVO) [ 1.75 GB ] Клаустрофобы / Escape Room | iTunes | DLRip-AVC Enigma2010 Скачать
2 | 0



Последний раз редактировалось: Enigma2010 (2019-05-06 04:57), всего редактировалось 2 раз(а)

28-11-2019 20:33  


Отключить вcю реклaмy на сайте, в т.ч. и в плеере онлайн просмотра!

15-04-2019 00:05 Клаустрофобы Скачать торрент  

Что-то "Пила" вспоминается)



15-04-2019 17:00 Клаустрофобы Скачать торрент  

Нормальный кин



15-04-2019 17:46 Клаустрофобы Скачать торрент  

Разок угорнул даже, когда он спросил: "Теперь меня отпустят?" - ага свидетелей всегда отпускают)))



16-04-2019 15:05 Клаустрофобы Скачать торрент  

siriyessam писал(а):

Разок угорнул даже, когда он спросил: "Теперь меня отпустят?" - ага свидетелей всегда отпускают)))

концовку слил



16-04-2019 16:23 Клаустрофобы Скачать торрент  

Фильм отличный Реально теперь это редкость. Сюжет не избит, есть что-то от пилы, но это только далекая ассоциация)))) Отличные декорации, хорошая игра актеров. Фильм твердая 9-ка



    Дорогой пользователь! Огромная просьба, поблагодарите релизера, оцените раздачу и оставьте свои комментарий, если Вы скачали Клаустрофобы через торрент бесплатно!!
    Комментировать посты могут только пользователи прошедшие не сложную регистрацию
    Показать сообщения:    


    Клаустрофобы через торрент
    Скачать бесплатно Клаустрофобы
    Клаустрофобы скачать торрент
    Клаустрофобы смотреть онлайн
    Cкачать фильм Клаустрофобы бесплатно
    Клаустрофобы скачать торрент в хорошем качестве
    Клаустрофобы смотреть онлайн бесплатно в хорошем качестве
    Вы не можете начинать темы
    Вы не можете отвечать на сообщения
    Вы не можете редактировать свои сообщения
    Вы не можете удалять свои сообщения
    Вы не можете голосовать в опросах
    Вы не можете прикреплять файлы к сообщениям
    Вы можете скачивать файлы
    Клаустрофобы / Escape Room [2019, триллер, BDRip-AVC] Дубляж [Лицензия] - ExKinoRay смотреть онлайн, скачать торрент picoco.icu