Доктор Стрэндж

Лицензия

Добыча

Дубляж

Дом дракона

1 сезон

Тор

Дубляж

В эфире

Дубляж

Там, где раки поют

MVO

Властелин колец

1 сезон

GLOBAL

pack

Рекомендуем

30

Пиратка

ВАЖНО

ВАЖНО

Ghostwire

Пиратка

jed

RePack

nioh2

RePack

RDR2

RePack

NEED FOR SPEED™ PAYBACK

RePack

скачать торрент

Кинопоиск HD

Острые козырьки 6 сезон

6 сезон

FAR CRY 6

RePack

скачать торрент

Лицензия

скачать торрент

MVO

1

1 сезон

скачать торрент

1 сезон

скачать торрент

Лицензия

  

Чего хотят мужчины / What Men Want (Адам Шенкман) [2019, фэнтези, мелодрама, комедия, BDRip-AVC] Дубляж [iTunes] - ExKinoRay

Чего хотят мужчины через торрент 2022.piratbit.fun

Раздают: 8 [ 0 KB/s ] Качают: 1 [ 0 KB/s ]
Размер: 2.24 GB | Добавлен: 3 года 6 мес. назад | Торрент скачан:497 раз
Смотреть онлайн | Скачать   

19-05-2019 22:29 Чего хотят мужчины Скачать торрент  

Название: Чего хотят мужчины
Оригинальное название: What Men Want
Год выпуска: 2019
Жанр: Фэнтези, мелодрама, комедия
Режиссер: Адам Шенкман
В ролях: Тараджи П. Хенсон, Кристен Ледлоу, Джош Бренер, Келлан Латс, Джастин Альварез, Крис Витаск, Макс Гринфилд, Пол Брайан Джонсон, Брайан Босворт, Каусар Мохаммед, Трэйси Морган

Описание: Али Дэвис - успешный менеджер спортивных звезд, продвижению по карьере которой постоянно мешают коллеги-мужчины. Получив возможность слышать мысли мужчин, она использует свой талант, чтобы изменить правила игры и заключить контракт с молодым и талантливым бейсболистом.

rating

Выпущено: США, BET Films, Paramount Players, Will Packer Productions
Продолжительность: 01:57:06
Перевод: Дублированный (iTunes)
Субтитры: Русские (форс., полные), английские

БЕЗ КАКОЙ-ЛИБО РЕКЛАМЫ!

Формат: MKV
Качество: BDRip-AVC
Видео: MPEG-4 AVC, 1024x428 (2.40:1), 23.976 fps, 1907 Kbps, 0.181 bit/pixel
Аудио #01: 48 kHz, AC3, 5.1, 384 Kbps | Дубляж | RUS |
Аудио #02: 48 kHz, AC3, 5.1, 448 Kbps | Оригинал | ENG |
General
Unique ID : 244254176381562086443519900656946988855 (0xB7C1A4AAF32FCA9AA66FD4C8C59D4737)
Complete name : D:\What.Men.Want.2019.iTunes.BDRip.AVC.ExKinoRay.mkv
Format : Matroska
Format version : Version 2
File size : 2.24 GiB
Duration : 1 h 57 min
Overall bit rate : 2 738 kb/s
Movie name : What Men Want 2019 from ExKinoRay
Encoded date : UTC 2019-05-17 11:33:34
Writing application : mkvmerge v5.6.0 ('Kenya Kane') built on May 27 2012 16:44:04
Writing library : libebml v1.2.3 + libmatroska v1.3.0

Video
ID : 1
Format : AVC
Format/Info : Advanced Video Codec
Format profile : [email protected]
Format settings, CABAC : Yes
Format settings, ReFrames : 12 frames
Codec ID : V_MPEG4/ISO/AVC
Duration : 1 h 57 min
Bit rate : 1 907 kb/s
Width : 1 024 pixels
Height : 428 pixels
Display aspect ratio : 2.40:1
Frame rate mode : Constant
Frame rate : 23.976 (23976/1000) FPS
Color space : YUV
Chroma subsampling : 4:2:0
Bit depth : 8 bits
Scan type : Progressive
Bits/(Pixel*Frame) : 0.181
Stream size : 1.51 GiB (68%)
Title : Enigma
Writing library : x264 core 152 r2851 ba24899
Encoding settings : cabac=1 / ref=12 / deblock=1:-2:-2 / analyse=0x3:0x113 / me=umh / subme=10 / psy=1 / psy_rd=1.02:0.06 / mixed_ref=1 / me_range=32 / chroma_me=1 / trellis=2 / 8x8dct=1 / cqm=0 / deadzone=21,11 / fast_pskip=0 / chroma_qp_offset=-3 / threads=12 / lookahead_threads=3 / sliced_threads=0 / nr=0 / decimate=0 / interlaced=0 / bluray_compat=0 / constrained_intra=0 / bframes=11 / b_pyramid=2 / b_adapt=2 / b_bias=0 / direct=3 / weightb=1 / open_gop=0 / weightp=2 / keyint=240 / keyint_min=23 / scenecut=40 / intra_refresh=0 / rc=2pass / mbtree=0 / bitrate=1907 / ratetol=1.0 / qcomp=0.60 / qpmin=0 / qpmax=51 / qpstep=4 / cplxblur=20.0 / qblur=0.5 / ip_ratio=1.30 / pb_ratio=1.20 / aq=1:1.00
Language : English
Default : Yes
Forced : No
Color range : Limited
Color primaries : BT.709
Transfer characteristics : BT.709
Matrix coefficients : BT.709

Audio #1
ID : 2
Format : AC-3
Format/Info : Audio Coding 3
Mode extension : CM (complete main)
Format settings, Endianness : Big
Codec ID : A_AC3
Duration : 1 h 57 min
Bit rate mode : Constant
Bit rate : 384 kb/s
Channel(s) : 6 channels
Channel positions : Front: L C R, Side: L R, LFE
Sampling rate : 48.0 kHz
Frame rate : 31.250 FPS (1536 spf)
Compression mode : Lossy
Stream size : 322 MiB (14%)
Title : iTunes
Language : Russian
Default : Yes
Forced : No

Audio #2
ID : 3
Format : AC-3
Format/Info : Audio Coding 3
Mode extension : CM (complete main)
Format settings, Endianness : Big
Codec ID : A_AC3
Duration : 1 h 57 min
Bit rate mode : Constant
Bit rate : 448 kb/s
Channel(s) : 6 channels
Channel positions : Front: L C R, Side: L R, LFE
Sampling rate : 48.0 kHz
Frame rate : 31.250 FPS (1536 spf)
Compression mode : Lossy
Stream size : 375 MiB (16%)
Language : English
Default : No
Forced : No

Text #1
ID : 4
Format : UTF-8
Codec ID : S_TEXT/UTF8
Codec ID/Info : UTF-8 Plain Text
Title : Forced
Language : Russian
Default : Yes
Forced : No

Text #2
ID : 5
Format : UTF-8
Codec ID : S_TEXT/UTF8
Codec ID/Info : UTF-8 Plain Text
Title : Full
Language : Russian
Default : No
Forced : No

Text #3
ID : 6
Format : UTF-8
Codec ID : S_TEXT/UTF8
Codec ID/Info : UTF-8 Plain Text
Title : Full
Language : English
Default : No
Forced : No

Text #4
ID : 7
Format : UTF-8
Codec ID : S_TEXT/UTF8
Codec ID/Info : UTF-8 Plain Text
Title : SDH
Language : English
Default : No
Forced : No

Menu
00:00:00.000 : en:Chapter 01
00:11:26.519 : en:Chapter 02
00:22:01.904 : en:Chapter 03
00:31:02.444 : en:Chapter 04
00:43:07.668 : en:Chapter 05
00:51:37.970 : en:Chapter 06
01:01:19.843 : en:Chapter 07
01:10:45.616 : en:Chapter 08
01:18:53.395 : en:Chapter 09
01:28:42.901 : en:Chapter 10
01:38:51.843 : en:Chapter 11
01:47:41.664 : en:Chapter 12
Релиз от: VK релиз-группы

Автор релиза: Enigma



Скачать Чего хотят мужчины через торрент https://st-kp-yandex-net.translate.goog/images/film_iphone/iphone360_1108581.jpg Скачать, смотреть онлайн Чего хотят мужчины бесплантно в хорошем качестве Описание: Али Дэвис - успешный менеджер спортивных звезд, продвижению по карьере которой постоянно мешают коллеги-мужчины. Получив ... 10 10 5
Info! Золотая раздача, скачанное не засчитывается.
Торрент: Зарегистрирован [2019-05-19 22:29] · скачан: 497 раз
Статус: √ проверено
Размер: 2.24 GB
Как cкачать? Как скачать Чего хотят мужчины через торрент | UTorrent

% Раздел Тема Автор DL S | L
T Фильмы 2019-2020 [DVDrip, WEB-DLRip, HDrip] (DUB, MVO) [ 1.45 GB ] Чего хотят мужчины / What Men Want | MVO | BDRip Enigma2010 Скачать
25 | 0

28-11-2019 20:33  


Отключить вcю реклaмy на сайте, в т.ч. и в плеере онлайн просмотра!

    Дорогой пользователь! Огромная просьба, поблагодарите релизера, оцените раздачу и оставьте свои комментарий, если Вы скачали Чего хотят мужчины через торрент бесплатно!!
    Комментировать посты могут только пользователи прошедшие не сложную регистрацию
    Показать сообщения:    


    Чего хотят мужчины через торрент
    Скачать бесплатно Чего хотят мужчины
    Чего хотят мужчины скачать торрент
    Чего хотят мужчины смотреть онлайн
    Cкачать фильм Чего хотят мужчины бесплатно
    Чего хотят мужчины скачать торрент в хорошем качестве
    Чего хотят мужчины смотреть онлайн бесплатно в хорошем качестве
    Вы не можете начинать темы
    Вы не можете отвечать на сообщения
    Вы не можете редактировать свои сообщения
    Вы не можете удалять свои сообщения
    Вы не можете голосовать в опросах
    Вы не можете прикреплять файлы к сообщениям
    Вы можете скачивать файлы
    Чего хотят мужчины / What Men Want [2019, фэнтези, мелодрама, комедия, BDRip-AVC] Дубляж [iTunes] - ExKinoRay смотреть онлайн, скачать торрент picoco.icu