Доктор Стрэндж

Лицензия

Добыча

Дубляж

Дом дракона

1 сезон

Тор

Дубляж

В эфире

Дубляж

Там, где раки поют

MVO

Властелин колец

1 сезон

GLOBAL

pack

Рекомендуем

30

Пиратка

ВАЖНО

ВАЖНО

Ghostwire

Пиратка

jed

RePack

nioh2

RePack

RDR2

RePack

NEED FOR SPEED™ PAYBACK

RePack

скачать торрент

Кинопоиск HD

Острые козырьки 6 сезон

6 сезон

FAR CRY 6

RePack

скачать торрент

Лицензия

скачать торрент

MVO

1

1 сезон

скачать торрент

1 сезон

скачать торрент

Лицензия

  

План побега 3 / Escape Plan: The Extractors (Джон Херцфелд / John Herzfeld) [2019, боевик, HDRip] [MVO] (СВ Студия)

План побега 3 через торрент 2022.piratbit.fun

Размер: 1.46 GB | Добавлен: 3 года 5 мес. назад | Торрент скачан:1062 раза
Смотреть онлайн | Скачать   

27-06-2019 07:34 План побега 3 Скачать торрент  

План побега 3 / Escape Plan: The Extractors

Страна: США
Жанр: боевик
Год выпуска: 2019
Продолжительность: 01:27:34
Перевод: Профессиональный (многоголосый закадровый) | СВ Студия
Субтитры: нет

Режиссер: Джон Херцфелд / John Herzfeld
В ролях: Сильвестр Сталлоне, Дэйв Батиста, 50 Cent, Джейми Кинг, Макс Чжан, Девон Сава, Гарри Шам мл., Расселл Вонг, Дэниэл Бернхард, Лидия Халл
Описание:
Непревзойденный взломщик тюрем Рэй Бреслин опять ввязался в смертельно опасную авантюру: вместе со своей командой он берётся разыскать похищенную дочь своего друга - бизнесмена из Гонконга. Нити расследования приводят к одной из самых секретных тюрем Америки, которая называется «Пункт Дьявола».
rating

Качество видео: HDRip
Формат видео: AVI

Видео: 720x304 (2.37:1), 23.976 fps, XviD build 73 ~1922 kbps avg, 0.37 bit/pixel
Аудио: 48 kHz, AC3 Dolby Digital, 3/2 (L,C,R,l,r) + LFE ch, ~448 kbps
Сэмпл
Формат                                   : AVI
Формат/Информация : Audio Video Interleave
Размер файла : 1,46 Гбайт
Продолжительность : 1 ч. 27 м.
Общий поток : 2380 Кбит/сек
Название фильма : План побега 3_2019_HDRip
Программа кодирования : VirtualDubMod 1.5.10.3 | www.virtualdub-fr.org || (build 2550/release)
Авторское право : порошков

Видео
Идентификатор : 0
Формат : MPEG-4 Visual
Профиль формата : Advanced [email protected]
Настройки формата : BVOP1 / Custom Matrix
Параметр BVOP формата : 1
Параметр QPel формата : Нет
Параметр GMC формата : Без точки перехода
Параметр матрицы формата : Выборочная
Идентификатор кодека : XVID
Идентификатор кодека/Подсказка : XviD
Продолжительность : 1 ч. 27 м.
Битрейт : 1923 Кбит/сек
Ширина : 720 пикселей
Высота : 304 пикселя
Соотношение сторон : 2,35:1
Частота кадров : 23,976 (24000/1001) кадра/сек
Цветовое пространство : YUV
Субдискретизация насыщенности : 4:2:0
Битовая глубина : 8 бит
Тип развёртки : Прогрессивная
Метод сжатия : С потерями
Бит/(Пиксели*Кадры) : 0.366
Размер потока : 1,18 Гбайт (81%)
Библиотека кодирования : XviD 73

Аудио
Идентификатор : 1
Формат : AC-3
Формат/Информация : Audio Coding 3
Коммерческое название : Dolby Digital
Идентификатор кодека : 2000
Продолжительность : 1 ч. 27 м.
Вид битрейта : Постоянный
Битрейт : 448 Кбит/сек
Каналы : 6 каналов
ChannelLayout : L R C LFE Ls Rs
Частота : 48,0 КГц
Частота кадров : 31,250 кадров/сек (1536 SPF)
Битовая глубина : 16 бит
Метод сжатия : С потерями
Размер потока : 281 Мбайт (19%)
Выравнивание : Разделение по промежуткам
Продолжительность промежутка : 42 мс. (1,00 видеокадр)
Время предзагрузки промежутка : 500 мс.
ServiceKind/String : Complete Main
скриншот  скриншот  скриншот  



Скачать План побега 3 через торрент https://i6-imageban-ru.translate.goog/out/2019/06/27/d0d630bc57df4d3136d3c178c7c15d21.jpg Скачать, смотреть онлайн План побега 3 бесплантно в хорошем качестве Описание:Непревзойденный взломщик тюрем Рэй Бреслин опять ввязался в смертельно опасную авантюру: вместе со своей командой он берётся ... 9.2 10 23
Торрент: Зарегистрирован [2019-06-27 07:34] · скачан: 1 062 раз
Статус: √ проверено
Размер: 1.46 GB
Как cкачать? Как скачать План побега 3 через торрент | UTorrent

% Раздел Тема Автор DL S | L
Фильмы [HD 720p, 1080p] (Хороший звук DUB, MVO) [ 3.97 GB ] План побега 3 / Escape Plan: The Extractors | MVO | 720p Enigma2010 Скачать
3 | 0
Фильмы 2019-2020 [DVDrip, WEB-DLRip, HDrip] (DUB, MVO) [ 1.74 GB ] План побега 3 / Escape Plan: The Extractors | MVO | HDRip-AVC Enigma2010 Скачать
3 | 0
Фильмы [HD 720p, 1080p] (Хороший звук DUB, MVO) [ 8.81 GB ] План побега 3 / Escape Plan: The Extractors | MVO | 1080p killermax2013 Скачать
1 | 0

28-11-2019 20:33  


Отключить вcю реклaмy на сайте, в т.ч. и в плеере онлайн просмотра!

27-06-2019 12:21 План побега 3 Скачать торрент  

Зачем они это сняли?



27-06-2019 18:52 План побега 3 Скачать торрент  

1 часть интересная была, 2 тоже пойдет а эту и точно неясно зачем сняли.Но вы меня не слушайте и идите на премьеру в кино ))



27-06-2019 20:08 План побега 3 Скачать торрент  

Третья??? Я еще про вторую ничего не слышал



27-06-2019 20:38 План побега 3 Скачать торрент  

Сталлоне на старости лет похоже встает на путь н.кейджа...у него ж нет вроде бы проблем с деньгами,неужели нельзя уйти на пенсию в статусе звезды а не треш актера,ну и сниматся редко но метко в хороших фильмах.



27-06-2019 21:34 План побега 3 Скачать торрент  

Даже вторую часть не стал смотреть, ее на всех трекерах только ленивый не обругал, а тут уже третья вышла хм.



28-06-2019 09:56 План побега 3 Скачать торрент  

Кому как. Мне вот первая резко не понравилась, а вторая показалась вполне ничего. Батиста опять же. Он прикольный.



    Дорогой пользователь! Огромная просьба, поблагодарите релизера, оцените раздачу и оставьте свои комментарий, если Вы скачали План побега 3 через торрент бесплатно!!
    Комментировать посты могут только пользователи прошедшие не сложную регистрацию
    Показать сообщения:    


    План побега 3 через торрент
    Скачать бесплатно План побега 3
    План побега 3 скачать торрент
    План побега 3 смотреть онлайн
    Cкачать фильм План побега 3 бесплатно
    План побега 3 скачать торрент в хорошем качестве
    План побега 3 смотреть онлайн бесплатно в хорошем качестве
    Вы не можете начинать темы
    Вы не можете отвечать на сообщения
    Вы не можете редактировать свои сообщения
    Вы не можете удалять свои сообщения
    Вы не можете голосовать в опросах
    Вы не можете прикреплять файлы к сообщениям
    Вы можете скачивать файлы
    План побега 3 / Escape Plan: The Extractors [2019, боевик, HDRip] [MVO] смотреть онлайн, скачать торрент picoco.icu