Доктор Стрэндж

Лицензия

Добыча

Дубляж

Уэнсдэй

1 сезон

Тор

Дубляж

В эфире

Дубляж

Там, где раки поют

MVO

Властелин колец

1 сезон

Deluxe

pack

Рекомендуем

30

Пиратка

ВАЖНО

ВАЖНО

Ghostwire

Пиратка

jed

RePack

nioh2

RePack

RDR2

RePack

NEED FOR SPEED™ PAYBACK

RePack

скачать торрент

Кинопоиск HD

Острые козырьки 6 сезон

6 сезон

FAR CRY 6

RePack

скачать торрент

Лицензия

скачать торрент

MVO

1

1 сезон

скачать торрент

1 сезон

скачать торрент

Лицензия

  

Прорыв / Breakthrough (Роксанн Доусон) [2019 г., драма, биография, WEB-DLRip, Профессиональный многоголосый "iTunes"]

Прорыв через торрент 2022.piratbit.fun

Размер: 710 MB | Добавлен: 3 года 4 мес. назад | Торрент скачан:44 раза
Смотреть онлайн | Скачать   

05-07-2019 19:00 Прорыв Скачать торрент  

Прорыв / Breakthrough
Год выпуска: 2019
Страна: США / Fox 2000 Pictures, Twentieth Century Fox
Жанр: драма, биография
Продолжительность: 01:56:25
Перевод: Профессиональный многоголосый (iTunes)
Субтитры: Русские форсированные - вшитые

Режиссер: Роксанн Доусон

rating

В ролях: Тофер Грейс, Джош Лукас, Майк Колтер, Крисси Мец, Деннис Хейсбёрт, Ребекка Стааб, Сэм Трэммелл, Марсель Руис, Алиса Сковбай, Виктор Зинк

Описание: История чудесного спасения 14-летнего Джона, который провалился под лёд озера в Миссури. Когда мальчика доставили в больницу, он более часа не подавал признаков жизни. Его мать Джойс, не смирившись с потерей сына, призвала на помощь всю свою любовь и веру.

Качество: WEB-DLRip
Формат: AVI
Видео кодек: XviD
Аудио кодек: MP3
Видео: 640x272 (2.35:1), 23.976 fps, XviD build 50 ~715 kbps avg, 0.17 bit/pixel
Аудио: 48 kHz, MPEG Layer 3, 2 ch, ~128.00 kbps avg
скриншот   скриншот   скриншот   скриншот  

Общее
Полное имя : F:\ФИЛЬМЫ\Прорыв.2019.WEB-DLRip.avi
Формат : AVI
Формат/Информация : Audio Video Interleave
Размер файла : 710 Мбайт
Продолжительность : 1 ч. 56 м.
Общий поток : 852 Кбит/сек
Программа кодирования : VirtualDubMod 1.5.10.3 | www.virtualdub-fr.org || (build 2550/release)
Библиотека кодирования : VirtualDubMod build 2550/release

Видео
Идентификатор : 0
Формат : MPEG-4 Visual
Профиль формата : Advanced [email protected]
Настройки формата : BVOP3 / GMC3 / QPel
Параметр BVOP формата : 3
Параметр QPel формата : Да
Параметр GMC формата : 3 точки перехода
Параметр матрицы формата : Default (MPEG)
Идентификатор кодека : XVID
Идентификатор кодека/Подсказка : XviD
Продолжительность : 1 ч. 56 м.
Битрейт : 715 Кбит/сек
Ширина : 640 пикселей
Высота : 272 пикселя
Соотношение сторон : 2,35:1
Частота кадров : 23,976 (24000/1001) кадра/сек
Частота кадров в оригинале : 23,976 (23976/1000) кадра/сек
Цветовое пространство : YUV
Субдискретизация насыщенности : 4:2:0
Битовая глубина : 8 бит
Тип развёртки : Прогрессивная
Метод сжатия : С потерями
Бит/(Пиксели*Кадры) : 0.171
Размер потока : 596 Мбайт (84%)
Библиотека кодирования : XviD 1.2.1 (UTC 2008-12-04)

Аудио
Идентификатор : 1
Формат : MPEG Audio
Версия формата : Version 1
Профиль формата : Layer 3
Настройки формата : Joint stereo / MS Stereo
Идентификатор кодека : 55
Идентификатор кодека/Подсказка : MP3
Продолжительность : 1 ч. 56 м.
Вид битрейта : Постоянный
Битрейт : 128 Кбит/сек
Каналы : 2 канала
Частота : 48,0 КГц
Частота кадров : 41,667 кадра/сек (1152 SPF)
Метод сжатия : С потерями
Размер потока : 106 Мбайт (15%)
Выравнивание : Соединение по промежуткам
Продолжительность промежутка : 42 мс. (1,00 видеокадр)
Время предзагрузки промежутка : 504 мс.
Библиотека кодирования : LAME3.99r
Настройки программы : -m j -V 4 -q 2 -lowpass 17 -b 128




Скачать Прорыв через торрент https://pic1.kartinco.top/images/12/9j62t.jpg Скачать, смотреть онлайн Прорыв бесплантно в хорошем качестве Описание: История чудесного спасения 14-летнего Джона, который провалился под лёд озера в Миссури. Когда мальчика доставили в больницу, он ... 10 10 2
Торрент: Зарегистрирован [2019-07-05 19:00] · скачан: 44 раз
Статус: √ проверено
Размер: 710 MB
Как cкачать? Как скачать Прорыв через торрент | UTorrent

% Раздел Тема Автор DL S | L
Фильмы 2019-2020 [DVDrip, WEB-DLRip, HDrip] (DUB, MVO) [ 1.41 GB ] Прорыв / Breakthrough | Лицензия | BDRip Twi7ter Скачать
9 | 1
Фильмы (Blu-ray, BD-Remux, HDDVD) [ 26.45 GB ] Прорыв / Breakthrough | iTunes | BD Remux 1080p bober100 Скачать
1 | 0
Ultra HD (UHD: 2K, 4K, 8K) [ 49.69 GB ] Прорыв / Breakthrough | iTunes | 2160p sheker187 Скачать
1 | 0
Фильмы 2019-2020 [DVDrip, WEB-DLRip, HDrip] (DUB, MVO) [ 2.13 GB ] Прорыв / Breakthrough | iTunes | BDRip-AVC bober100 Скачать
1 | 0
Ultra HD (UHD: 2K, 4K, 8K) [ 13.64 GB ] Прорыв / Breakthrough | iTunes | 2160p sheker187 Скачать
1 | 0
Фильмы [HD 720p, 1080p] (Хороший звук DUB, MVO) [ 9.2 GB ] Прорыв / Breakthrough | iTunes | 1080p bober100 Скачать
1 | 0
Фильмы [HD 720p, 1080p] (Хороший звук DUB, MVO) [ 4.17 GB ] Прорыв / Breakthrough | iTunes | 720p bober100 Скачать
1 | 0

28-11-2019 20:33  


Отключить вcю реклaмy на сайте, в т.ч. и в плеере онлайн просмотра!

    Дорогой пользователь! Огромная просьба, поблагодарите релизера, оцените раздачу и оставьте свои комментарий, если Вы скачали Прорыв через торрент бесплатно!!
    Комментировать посты могут только пользователи прошедшие не сложную регистрацию
    Показать сообщения:    


    Прорыв через торрент
    Скачать бесплатно Прорыв
    Прорыв скачать торрент
    Прорыв смотреть онлайн
    Cкачать фильм Прорыв бесплатно
    Прорыв скачать торрент в хорошем качестве
    Прорыв смотреть онлайн бесплатно в хорошем качестве
    Вы не можете начинать темы
    Вы не можете отвечать на сообщения
    Вы не можете редактировать свои сообщения
    Вы не можете удалять свои сообщения
    Вы не можете голосовать в опросах
    Вы не можете прикреплять файлы к сообщениям
    Вы можете скачивать файлы
    Прорыв / Breakthrough [2019 г., драма, биография, WEB-DLRip, Профессиональный многоголосый "iTunes"] смотреть онлайн, скачать торрент picoco.icu