Доктор Стрэндж

Лицензия

Добыча

Дубляж

Дом дракона

1 сезон

Тор

Дубляж

В эфире

Дубляж

Там, где раки поют

MVO

Властелин колец

1 сезон

Deluxe

pack

Рекомендуем

30

Пиратка

ВАЖНО

ВАЖНО

Ghostwire

Пиратка

jed

RePack

nioh2

RePack

RDR2

RePack

NEED FOR SPEED™ PAYBACK

RePack

скачать торрент

Кинопоиск HD

Острые козырьки 6 сезон

6 сезон

FAR CRY 6

RePack

скачать торрент

Лицензия

скачать торрент

MVO

1

1 сезон

скачать торрент

1 сезон

скачать торрент

Лицензия

  

Последствия / The Aftermath (Джеймс Кент) [2019, драма, мелодрама, военный, BDRip-AVC] Дубляж [Лицензия]

Последствия через торрент 2022.piratbit.fun

Размер: 2.25 GB | Добавлен: 3 года 4 мес. назад | Торрент скачан:114 раз
Смотреть онлайн | Скачать   

11-07-2019 03:19 Последствия Скачать торрент  

Последствия / The Aftermath
Год выпуска: 2019
Страна: Великобритания, Германия, США
Жанр: драма, мелодрама, военный
Продолжительность: 01:48:38
Перевод: Дублированный | Лицензия
Субтитры: Русские (форс., полные), Английские (полные)

Режиссер: Джеймс Кент

rating

В ролях:

Кира Найтли (Rachael Morgan), Александр Скарсгард (Stephen Lubert), Джейсон Кларк (Lewis Morgan), Фионн О’Ши (Barker), Кейт Филлипс (Susan), Мартин Компстон (Burnham), Александр Шеер (Leitmann), Анна Катарина Шримригк (Heike), Ned Wills (Boy on Train), Пандора Колин (Mother on Train), Джек Лэски (Wilkins), Mirco Kuball (Soldier)
Описание:

Германия после Второй мировой войны. В стране беспорядок, разруха, голод. Главный герой - британский военный Льюис Морган, который назначен временным мэром Гамбурга. Ему предстоит восстанавливать город почти с нуля. Вместе с женой Льюис селится в роскошный особняк, где живет немецкий архитектор с эмоционально нестабильной дочерью. Смогут ли бывшие враги ужиться под одной крышей или желание отомстить будет сильнее?

Качество: BDRip-AVC
Формат: MKV

Видео: 1024x554 (1.85:1), 23,976 fps, x264 ~2 065 kbps avg, 0.152 bit/pixel
Аудио#1: 48 kHz, AC3 Dolby Digital Plus, 3/2 (L,C,R,l,r) + LFE ch, ~448.00 kbps avg | RUS (Лицензия) |
Аудио#2: 48 kHz, AC3 Dolby Digital Plus, 3/2 (L,C,R,l,r) + LFE ch, ~448.00 kbps avg | ENG |
скриншот  скриншот  скриншот  скриншот  скриншот  

Общее
Уникальный идентификатор : 105998672365887626083917451047059325709 (0x4FBE9A0A280E9D21084E2A9B1674030D)
Полное имя : F:OlLanDGroupThe.Aftermath.2019.BDRip(AVC).OlLanDGroup.mkv
Формат : Matroska
Версия формата : Version 4 / Version 2
Размер файла : 2,25 Гбайт
Продолжительность : 1 ч. 48 м.
Общий поток : 2963 Кбит/сек
Название фильма : The Aftermath 2019 #TorpedoUK#
Дата кодирования : UTC 2019-07-11 02:50:16
Программа кодирования : mkvmerge v29.0.0 ('Like It Or Not') 64-bit
Библиотека кодирования : libebml v1.3.6 + libmatroska v1.4.9

Видео
Идентификатор : 1
Формат : AVC
Формат/Информация : Advanced Video Codec
Профиль формата : [email protected]
Параметр CABAC формата : Да
Параметр ReFrames формата : 10 кадров
Идентификатор кодека : V_MPEG4/ISO/AVC
Продолжительность : 1 ч. 48 м.
Битрейт : 2065 Кбит/сек
Ширина : 1024 пикселя
Высота : 554 пикселя
Соотношение сторон : 1,85:1
Режим частоты кадров : Постоянный
Частота кадров : 23,976 (24000/1001) кадра/сек
Цветовое пространство : YUV
Субдискретизация насыщенности : 4:2:0
Битовая глубина : 8 бит
Тип развёртки : Прогрессивная
Бит/(Пиксели*Кадры) : 0.152
Размер потока : 1,57 Гбайт (70%)
Библиотека кодирования : x264 core 146 r2538 121396c
Настройки программы : cabac=1 / ref=10 / deblock=1:-3:-3 / analyse=0x3:0x113 / me=umh / subme=11 / psy=1 / psy_rd=1.00:0.03 / mixed_ref=1 / me_range=48 / chroma_me=1 / trellis=2 / 8x8dct=1 / cqm=0 / deadzone=21,11 / fast_pskip=1 / chroma_qp_offset=-3 / threads=6 / lookahead_threads=1 / sliced_threads=0 / nr=0 / decimate=1 / interlaced=0 / bluray_compat=0 / constrained_intra=0 / bframes=11 / b_pyramid=2 / b_adapt=2 / b_bias=0 / direct=3 / weightb=1 / open_gop=0 / weightp=2 / keyint=240 / keyint_min=23 / scenecut=40 / intra_refresh=0 / rc_lookahead=40 / rc=2pass / mbtree=0 / bitrate=2065 / ratetol=1.0 / qcomp=0.60 / qpmin=0 / qpmax=69 / qpstep=4 / cplxblur=20.0 / qblur=0.5 / vbv_maxrate=50000 / vbv_bufsize=62500 / nal_hrd=none / filler=0 / ip_ratio=1.40 / pb_ratio=1.30 / aq=1:1.00
Язык : English
Default : Да
Forced : Нет

Аудио #1
Идентификатор : 2
Формат : AC-3
Формат/Информация : Audio Coding 3
Расширение режима : CM (complete main)
Параметр Endianness формата : Big
Идентификатор кодека : A_AC3
Продолжительность : 1 ч. 48 м.
Вид битрейта : Постоянный
Битрейт : 448 Кбит/сек
Каналы : 6 каналов
Расположение каналов : Front: L C R, Side: L R, LFE
Частота : 48,0 КГц
Частота кадров : 31,250 кадров/сек (1536 spf)
Битовая глубина : 16 бит
Метод сжатия : С потерями
Размер потока : 348 Мбайт (15%)
Заголовок : Дубляж [License]
Язык : Russian
Default : Да
Forced : Нет

Аудио #2
Идентификатор : 3
Формат : AC-3
Формат/Информация : Audio Coding 3
Расширение режима : CM (complete main)
Параметр Endianness формата : Big
Идентификатор кодека : A_AC3
Продолжительность : 1 ч. 48 м.
Вид битрейта : Постоянный
Битрейт : 448 Кбит/сек
Каналы : 6 каналов
Расположение каналов : Front: L C R, Side: L R, LFE
Частота : 48,0 КГц
Частота кадров : 31,250 кадров/сек (1536 spf)
Битовая глубина : 16 бит
Метод сжатия : С потерями
Размер потока : 348 Мбайт (15%)
Заголовок : [Original]
Язык : English
Default : Нет
Forced : Нет

Текст #1
Идентификатор : 4
Формат : UTF-8
Идентификатор кодека : S_TEXT/UTF8
Идентификатор кодека/Информация : UTF-8 Plain Text
Продолжительность : 1 ч. 42 м.
Битрейт : 3 бит/сек
Count of elements : 79
Размер потока : 2,72 Кбайт (0%)
Заголовок : Forced
Язык : Russian
Default : Да
Forced : Нет

Текст #2
Идентификатор : 5
Формат : UTF-8
Идентификатор кодека : S_TEXT/UTF8
Идентификатор кодека/Информация : UTF-8 Plain Text
Продолжительность : 1 ч. 47 м.
Битрейт : 44 бит/сек
Count of elements : 837
Размер потока : 35,0 Кбайт (0%)
Заголовок : Full
Язык : Russian
Default : Нет
Forced : Нет

Текст #3
Идентификатор : 6
Формат : UTF-8
Идентификатор кодека : S_TEXT/UTF8
Идентификатор кодека/Информация : UTF-8 Plain Text
Продолжительность : 1 ч. 39 м.
Битрейт : 31 бит/сек
Count of elements : 949
Размер потока : 22,8 Кбайт (0%)
Заголовок : Full
Язык : English
Default : Нет
Forced : Нет

Меню
00:00:00.000 : en:Chapter 01
00:04:00.198 : en:Chapter 02
00:10:37.387 : en:Chapter 03
00:14:21.152 : en:Chapter 04
00:17:51.779 : en:Chapter 05
00:22:40.526 : en:Chapter 06
00:27:50.878 : en:Chapter 07
00:35:09.524 : en:Chapter 08
00:37:11.020 : en:Chapter 09
00:41:33.074 : en:Chapter 10
00:46:29.078 : en:Chapter 11
00:49:59.872 : en:Chapter 12
00:56:03.694 : en:Chapter 13
01:02:05.680 : en:Chapter 14
01:04:49.636 : en:Chapter 15
01:09:01.262 : en:Chapter 16
01:15:59.305 : en:Chapter 17
01:19:48.033 : en:Chapter 18
01:22:09.049 : en:Chapter 19
01:27:01.508 : en:Chapter 20
01:29:36.788 : en:Chapter 21
01:33:39.614 : en:Chapter 22
01:39:16.033 : en:Chapter 23
01:42:47.870 : en:Chapter 24




Скачать Последствия через торрент https://i106.fastpic.ru/big/2019/0623/10/4b440ee87dbea9aedc96b3800756c010.jpg Скачать, смотреть онлайн Последствия бесплантно в хорошем качестве Описание: Германия после Второй мировой войны. В стране беспорядок, разруха, голод. Главный герой - британский военный Льюис Морган, ... 10 10 2
Торрент: Зарегистрирован [2019-07-11 03:19] · скачан: 114 раз
Статус: √ проверено
Размер: 2.25 GB
Как cкачать? Как скачать Последствия через торрент | UTorrent

% Раздел Тема Автор DL S | L
Фильмы 2019-2020 [DVDrip, WEB-DLRip, HDrip] (DUB, MVO) [ 2.18 GB ] Последствия / The Aftermath | Лицензия | BDRip Enigma2010 Скачать
7 | 1
Фильмы 2019-2020 [DVDrip, WEB-DLRip, HDrip] (DUB, MVO) [ 1.46 GB ] Последствия / The Aftermath | Лицензия | BDRip Twi7ter Скачать
12 | 0
Фильмы (Blu-ray, BD-Remux, HDDVD) [ 37.23 GB ] Последствия / The Aftermath | Лицензия | 1080p bober100 Скачать
1 | 0
Фильмы [HD 720p, 1080p] (Хороший звук DUB, MVO) [ 5.92 GB ] Последствия / The Aftermath | Лицензия | 720p bober100 Скачать
1 | 0
Фильмы [HD 720p, 1080p] (Хороший звук DUB, MVO) [ 12.59 GB ] Последствия / The Aftermath | Лицензия | 1080p bober100 Скачать
1 | 0
Фильмы (Blu-ray, BD-Remux, HDDVD) [ 26.23 GB ] Последствия / The Aftermath | Лицензия | BD Remux 1080p bober100 Скачать
1 | 0
Ultra HD (UHD: 2K, 4K, 8K) [ 19.49 GB ] Последствия / The Aftermath | iTunes | 2160p sheker187 Скачать
1 | 0

28-11-2019 20:33  


Отключить вcю реклaмy на сайте, в т.ч. и в плеере онлайн просмотра!

    Дорогой пользователь! Огромная просьба, поблагодарите релизера, оцените раздачу и оставьте свои комментарий, если Вы скачали Последствия через торрент бесплатно!!
    Комментировать посты могут только пользователи прошедшие не сложную регистрацию
    Показать сообщения:    


    Последствия через торрент
    Скачать бесплатно Последствия
    Последствия скачать торрент
    Последствия смотреть онлайн
    Cкачать фильм Последствия бесплатно
    Последствия скачать торрент в хорошем качестве
    Последствия смотреть онлайн бесплатно в хорошем качестве
    Вы не можете начинать темы
    Вы не можете отвечать на сообщения
    Вы не можете редактировать свои сообщения
    Вы не можете удалять свои сообщения
    Вы не можете голосовать в опросах
    Вы не можете прикреплять файлы к сообщениям
    Вы можете скачивать файлы
    Последствия / The Aftermath [2019, драма, мелодрама, военный, BDRip-AVC] Дубляж [Лицензия] смотреть онлайн, скачать торрент picoco.icu