Доктор Стрэндж

Лицензия

Добыча

Дубляж

Дом дракона

1 сезон

Тор

Дубляж

В эфире

Дубляж

Там, где раки поют

MVO

Властелин колец

1 сезон

Deluxe

pack

Рекомендуем

30

Пиратка

ВАЖНО

ВАЖНО

Ghostwire

Пиратка

jed

RePack

nioh2

RePack

RDR2

RePack

NEED FOR SPEED™ PAYBACK

RePack

скачать торрент

Кинопоиск HD

Острые козырьки 6 сезон

6 сезон

FAR CRY 6

RePack

скачать торрент

Лицензия

скачать торрент

MVO

1

1 сезон

скачать торрент

1 сезон

скачать торрент

Лицензия

  

Уилл Гарднер / SGT. Will Gardner (Макс Мартини) [2019, Боевик, драма, приключения, военный, BDRip-AVC] MVO [HDRezka]

Уилл Гарднер через торрент 2022.piratbit.fun

Размер: 2.12 GB | Добавлен: 3 года 4 мес. назад | Торрент скачан:90 раз
Смотреть онлайн | Скачать   

17-07-2019 03:43 Уилл Гарднер Скачать торрент  

Уилл Гарднер / SGT. Will Gardner«Sometimes The Battle Follows you Home»
Год выпуска: 2019
Страна: США
Жанр: Боевик, драма, приключения, военный
Продолжительность: 02:05:08
Перевод: Профессиональный (многоголосый)| HDRezka
Субтитры: Английские (полные, SDH)

Режиссер: Макс Мартини

rating

В ролях: Дермот Малруни, Элизабет Рём, ДжоБет Уильямс, Лили Рэйб, Роберт Патрик, Холт Маккэллани, Омари Хардвик, Гэри Синиз, Макс Мартини, Стюарт Марголин

Описание: Фильм рассказывает историю ветерана Иракской войны Уилла Гарднера, который получил черепно-мозговую травму в бою и после возвращения на родину столкнулся с серьезными трудностями при адаптации к гражданской жизни, вызванными посттравматическим стрессовым расстройством. После серии жизненных неудач он угоняет мотоцикл своего работодателя, не желающего выплачивать ему честно заработанные деньги, и отправляется в спонтанное путешествие по стране, надеясь воссоединиться с маленьким сыном, которого не видел уже очень давно.

Качество: BDRip-AVC
Формат: MKV

Видео: 1024x428 (2.40:1), 23,976 fps, x264 ~1 786 kbps avg, 0.170 bit/pixel
Аудио#1: 48 kHz, AC3 Dolby Digital, 2 (L,R) ch, ~192.00 kbps avg | RUS (HDRezka)
Аудио#2: 48 kHz, AC3 Dolby Digital, 3/2 (L,C,R,l,r) + LFE ch, ~448.00 kbps avg | ENG
скриншот  скриншот  скриншот  скриншот  скриншот  

Общее
Уникальный идентификатор : 172479481030738593158074094441175206550 (0x81C256F89B7AAAAA18C88E80006C4A96)
Полное имя : F:OlLanDGroupSGT.Will.Gardner.2019.BDRip(AVC).OlLanDGroup.mkv
Формат : Matroska
Версия формата : Version 4 / Version 2
Размер файла : 2,12 Гбайт
Продолжительность : 2 ч. 5 м.
Общий поток : 2426 Кбит/сек
Название фильма : SGT.Will.Gardner.2019 #TorpedoUK#
Дата кодирования : UTC 2019-07-17 03:01:00
Программа кодирования : mkvmerge v29.0.0 ('Like It Or Not') 64-bit
Библиотека кодирования : libebml v1.3.6 + libmatroska v1.4.9

Видео
Идентификатор : 1
Формат : AVC
Формат/Информация : Advanced Video Codec
Профиль формата : [email protected]
Параметр CABAC формата : Да
Параметр ReFrames формата : 10 кадров
Идентификатор кодека : V_MPEG4/ISO/AVC
Продолжительность : 2 ч. 5 м.
Битрейт : 1786 Кбит/сек
Ширина : 1024 пикселя
Высота : 428 пикселей
Соотношение сторон : 2,40:1
Режим частоты кадров : Постоянный
Частота кадров : 23,976 (24000/1001) кадра/сек
Цветовое пространство : YUV
Субдискретизация насыщенности : 4:2:0
Битовая глубина : 8 бит
Тип развёртки : Прогрессивная
Бит/(Пиксели*Кадры) : 0.170
Размер потока : 1,56 Гбайт (74%)
Библиотека кодирования : x264 core 146 r2538 121396c
Настройки программы : cabac=1 / ref=10 / deblock=1:-2:-3 / analyse=0x3:0x113 / me=umh / subme=11 / psy=1 / psy_rd=0.90:0.10 / mixed_ref=1 / me_range=48 / chroma_me=1 / trellis=2 / 8x8dct=1 / cqm=0 / deadzone=21,11 / fast_pskip=1 / chroma_qp_offset=-3 / threads=6 / lookahead_threads=1 / sliced_threads=0 / nr=0 / decimate=1 / interlaced=0 / bluray_compat=0 / constrained_intra=0 / bframes=11 / b_pyramid=2 / b_adapt=2 / b_bias=0 / direct=3 / weightb=1 / open_gop=0 / weightp=2 / keyint=240 / keyint_min=23 / scenecut=40 / intra_refresh=0 / rc_lookahead=40 / rc=2pass / mbtree=0 / bitrate=1786 / ratetol=1.0 / qcomp=0.60 / qpmin=0 / qpmax=69 / qpstep=4 / cplxblur=20.0 / qblur=0.5 / vbv_maxrate=50000 / vbv_bufsize=62500 / nal_hrd=none / filler=0 / ip_ratio=1.40 / pb_ratio=1.30 / aq=1:1.00
Язык : English
Default : Да
Forced : Нет

Аудио #1
Идентификатор : 2
Формат : AC-3
Формат/Информация : Audio Coding 3
Расширение режима : CM (complete main)
Параметр Endianness формата : Big
Идентификатор кодека : A_AC3
Продолжительность : 2 ч. 5 м.
Вид битрейта : Постоянный
Битрейт : 192 Кбит/сек
Каналы : 2 канала
Расположение каналов : Front: L R
Частота : 48,0 КГц
Частота кадров : 31,250 кадров/сек (1536 spf)
Битовая глубина : 16 бит
Метод сжатия : С потерями
Размер потока : 172 Мбайт (8%)
Заголовок : MVO [HDRezka]
Язык : Russian
Default : Да
Forced : Нет

Аудио #2
Идентификатор : 3
Формат : AC-3
Формат/Информация : Audio Coding 3
Расширение режима : CM (complete main)
Параметр Endianness формата : Big
Идентификатор кодека : A_AC3
Продолжительность : 2 ч. 5 м.
Вид битрейта : Постоянный
Битрейт : 448 Кбит/сек
Каналы : 6 каналов
Расположение каналов : Front: L C R, Side: L R, LFE
Частота : 48,0 КГц
Частота кадров : 31,250 кадров/сек (1536 spf)
Битовая глубина : 16 бит
Метод сжатия : С потерями
Размер потока : 401 Мбайт (18%)
Заголовок : [Original]
Язык : English
Default : Нет
Forced : Нет

Текст #1
Идентификатор : 4
Формат : UTF-8
Идентификатор кодека : S_TEXT/UTF8
Идентификатор кодека/Информация : UTF-8 Plain Text
Продолжительность : 1 ч. 57 м.
Битрейт : 46 бит/сек
Count of elements : 1677
Размер потока : 40,0 Кбайт (0%)
Заголовок : Full
Язык : English
Default : Нет
Forced : Нет

Текст #2
Идентификатор : 5
Формат : UTF-8
Идентификатор кодека : S_TEXT/UTF8
Идентификатор кодека/Информация : UTF-8 Plain Text
Продолжительность : 1 ч. 59 м.
Битрейт : 48 бит/сек
Count of elements : 1779
Размер потока : 42,4 Кбайт (0%)
Заголовок : SDH
Язык : English
Default : Нет
Forced : Нет

Меню
00:00:00.000 : :Chapter 01
00:17:13.157 : :Chapter 02
00:35:24.789 : :Chapter 03
00:53:19.863 : :Chapter 04
01:05:32.846 : :Chapter 05
01:23:25.959 : :Chapter 06
01:39:03.813 : :Chapter 07
01:59:47.055 : :Chapter 08




Скачать Уилл Гарднер через торрент https://i87.fastpic.ru/big/2019/0717/3b/da1ab4d5d373f17f86e25c721be07a3b.jpg Скачать, смотреть онлайн Уилл Гарднер бесплантно в хорошем качестве Описание: Фильм рассказывает историю ветерана Иракской войны Уилла Гарднера, который получил черепно-мозговую травму в бою и после ... 10 10 6
Торрент: Зарегистрирован [2019-07-17 03:43] · скачан: 90 раз
Статус: T временная
Размер: 2.12 GB
Как cкачать? Как скачать Уилл Гарднер через торрент | UTorrent

% Раздел Тема Автор DL S | L
T Фильмы 2019-2020 [DVDrip, WEB-DLRip, HDrip] (DUB, MVO) [ 1.46 GB ] Уилл Гарднер / SGT. Will Gardner | HDRezka Studio | BDRip bober100 Скачать
1 | 0
T Фильмы [HD 720p, 1080p] (Хороший звук DUB, MVO) [ 11.21 GB ] Уилл Гарднер / SGT. Will Gardner | HDRezka Studio | 1080p bober100 Скачать
1 | 0
T Фильмы [HD 720p, 1080p] (Хороший звук DUB, MVO) [ 4.37 GB ] Уилл Гарднер / SGT. Will Gardner | HDRezka Studio | 720p bober100 Скачать
1 | 0

28-11-2019 20:33  


Отключить вcю реклaмy на сайте, в т.ч. и в плеере онлайн просмотра!

    Дорогой пользователь! Огромная просьба, поблагодарите релизера, оцените раздачу и оставьте свои комментарий, если Вы скачали Уилл Гарднер через торрент бесплатно!!
    Комментировать посты могут только пользователи прошедшие не сложную регистрацию
    Показать сообщения:    


    Уилл Гарднер через торрент
    Скачать бесплатно Уилл Гарднер
    Уилл Гарднер скачать торрент
    Уилл Гарднер смотреть онлайн
    Cкачать фильм Уилл Гарднер бесплатно
    Уилл Гарднер скачать торрент в хорошем качестве
    Уилл Гарднер смотреть онлайн бесплатно в хорошем качестве
    Вы не можете начинать темы
    Вы не можете отвечать на сообщения
    Вы не можете редактировать свои сообщения
    Вы не можете удалять свои сообщения
    Вы не можете голосовать в опросах
    Вы не можете прикреплять файлы к сообщениям
    Вы можете скачивать файлы
    Уилл Гарднер / SGT. Will Gardner [2019, Боевик, драма, приключения, военный, BDRip-AVC] MVO [HDRezka] смотреть онлайн, скачать торрент picoco.icu