Доктор Стрэндж

Лицензия

Добыча

Дубляж

Дом дракона

1 сезон

Тор

Дубляж

В эфире

Дубляж

Там, где раки поют

MVO

Властелин колец

1 сезон

Deluxe

pack

Рекомендуем

30

Пиратка

ВАЖНО

ВАЖНО

Ghostwire

Пиратка

jed

RePack

nioh2

RePack

RDR2

RePack

NEED FOR SPEED™ PAYBACK

RePack

скачать торрент

Кинопоиск HD

Острые козырьки 6 сезон

6 сезон

FAR CRY 6

RePack

скачать торрент

Лицензия

скачать торрент

MVO

1

1 сезон

скачать торрент

1 сезон

скачать торрент

Лицензия

  

Ядовитая роза / The Poison Rose (Франческо Синкуемани, Джордж Галло) [2019 г., триллер, драма, HDRip, Дубляж "iTunes"]

Ядовитая роза через торрент 2022.piratbit.fun

Размер: 705 MB | Добавлен: 3 года 4 мес. назад | Торрент скачан:64 раза
Смотреть онлайн | Скачать   

26-07-2019 18:29 Ядовитая роза Скачать торрент  

Ядовитая роза / The Poison Rose
Год выпуска: 2019
Страна: США, Италия / JTP Films, March On Productions, Millennium Media
Жанр: триллер, драма
Продолжительность: 01:37:51
Перевод: Дубляж (iTunes)

Режиссер: Франческо Синкуемани, Джордж Галло

rating

В ролях: Джон Траволта, Морган Фриман, Элла Блю Траволта, Брендан Фрейзер, Фамке Янссен, Петер Стормаре, Роберт Патрик, Кэт Грэхэм, Клаудия Джерини, Ник Валлелонга

Описание: Карсон Филипс в прошлом - звезда футбола, теперь - частный детектив. В его руки попадает простое, на первый взгляд, дело о пропавших без вести. Но расследование принимает неожиданный поворот: в запутанной череде жестоких преступлений замешана его дочь, которая давно бесследно исчезла.

Качество: HDRip
Формат: AVI
Видео кодек: XviD
Аудио кодек: MP3
Видео: 640x272 (2.35:1), 23.976 fps, XviD build 50 ~865 kbps avg, 0.21 bit/pixel
Аудио: 48 kHz, MPEG Layer 3, 2 ch, ~128.00 kbps avg
скриншот   скриншот   скриншот   скриншот   скриншот   скриншот  

Общее
Полное имя : F:\ФИЛЬМЫ\Ядовитая роза.2019.D.HDRip.avi
Формат : AVI
Формат/Информация : Audio Video Interleave
Размер файла : 705 Мбайт
Продолжительность : 1 ч. 37 м.
Режим общего битрейта : Переменный
Общий поток : 1007 Кбит/сек
Программа кодирования : VirtualDubMod 1.5.10.3 | www.virtualdub-fr.org || (build 2550/release)
Библиотека кодирования : VirtualDubMod build 2550/release

Видео
Идентификатор : 0
Формат : MPEG-4 Visual
Профиль формата : Advanced [email protected]
Настройки формата : BVOP3 / GMC3 / QPel
Параметр BVOP формата : 3
Параметр QPel формата : Да
Параметр GMC формата : 3 точки перехода
Параметр матрицы формата : Default (MPEG)
Идентификатор кодека : XVID
Идентификатор кодека/Подсказка : XviD
Продолжительность : 1 ч. 37 м.
Битрейт : 866 Кбит/сек
Ширина : 640 пикселей
Высота : 272 пикселя
Соотношение сторон : 2,35:1
Частота кадров : 23,976 (24000/1001) кадра/сек
Цветовое пространство : YUV
Субдискретизация насыщенности : 4:2:0
Битовая глубина : 8 бит
Тип развёртки : Прогрессивная
Метод сжатия : С потерями
Бит/(Пиксели*Кадры) : 0.207
Размер потока : 606 Мбайт (86%)
Библиотека кодирования : XviD 1.2.1 (UTC 2008-12-04)

Аудио
Идентификатор : 1
Формат : MPEG Audio
Версия формата : Version 1
Профиль формата : Layer 3
Настройки формата : Joint stereo / MS Stereo
Идентификатор кодека : 55
Идентификатор кодека/Подсказка : MP3
Продолжительность : 1 ч. 37 м.
Вид битрейта : Переменный
Битрейт : 128 Кбит/сек
Каналы : 2 канала
Частота : 48,0 КГц
Метод сжатия : С потерями
Размер потока : 89,6 Мбайт (13%)
Выравнивание : Соединение по промежуткам
Продолжительность промежутка : 24 мс. (0,58 видеокадр)
Время предзагрузки промежутка : 486 мс.
Библиотека кодирования : LAME3.99r
Настройки программы : -m j -V 4 -q 2 -lowpass 17 -b 128




Скачать Ядовитая роза через торрент https://pic1.kartinco.top/images/12/lt4tl.jpg Скачать, смотреть онлайн Ядовитая роза бесплантно в хорошем качестве Описание: Карсон Филипс в прошлом - звезда футбола, теперь - частный детектив. В его руки попадает простое, на первый взгляд, дело о ... 9 10 3
Торрент: Зарегистрирован [2019-07-26 18:29] · скачан: 64 раз
Статус: √ проверено
Размер: 705 MB
Как cкачать? Как скачать Ядовитая роза через торрент | UTorrent

% Раздел Тема Автор DL S | L
Фильмы 2019-2020 [DVDrip, WEB-DLRip, HDrip] (DUB, MVO) [ 1.42 GB ] Ядовитая роза / The Poison Rose | Лицензия | BDRip Twi7ter Скачать
1 | 0
Фильмы 2019-2020 [DVDrip, WEB-DLRip, HDrip] (DUB, MVO) [ 1.42 GB ] Ядовитая роза / The Poison Rose | iTunes | BDRip bober100 Скачать
9 | 0
Фильмы 2019-2020 [DVDrip, WEB-DLRip, HDrip] (DUB, MVO) [ 2.12 GB ] Ядовитая роза / The Poison Rose | iTunes | BDRip-AVC bober100 Скачать
1 | 0
Фильмы (Blu-ray, BD-Remux, HDDVD) [ 23.36 GB ] Ядовитая роза / The Poison Rose | iTunes | BD Remux 1080p bober100 Скачать
1 | 0
Фильмы [HD 720p, 1080p] (Хороший звук DUB, MVO) [ 6.32 GB ] Ядовитая роза / The Poison Rose | iTunes | 720p bober100 Скачать
1 | 0
Фильмы [HD 720p, 1080p] (Хороший звук DUB, MVO) [ 14.52 GB ] Ядовитая роза / The Poison Rose | iTunes | 1080p bober100 Скачать
1 | 0
Фильмы [HD 720p, 1080p] (Хороший звук DUB, MVO) [ 9.53 GB ] Ядовитая роза / The Poison Rose | MVO | 1080p bober100 Скачать
1 | 0

28-11-2019 20:33  


Отключить вcю реклaмy на сайте, в т.ч. и в плеере онлайн просмотра!

    Дорогой пользователь! Огромная просьба, поблагодарите релизера, оцените раздачу и оставьте свои комментарий, если Вы скачали Ядовитая роза через торрент бесплатно!!
    Комментировать посты могут только пользователи прошедшие не сложную регистрацию
    Показать сообщения:    


    Ядовитая роза через торрент
    Скачать бесплатно Ядовитая роза
    Ядовитая роза скачать торрент
    Ядовитая роза смотреть онлайн
    Cкачать фильм Ядовитая роза бесплатно
    Ядовитая роза скачать торрент в хорошем качестве
    Ядовитая роза смотреть онлайн бесплатно в хорошем качестве
    Вы не можете начинать темы
    Вы не можете отвечать на сообщения
    Вы не можете редактировать свои сообщения
    Вы не можете удалять свои сообщения
    Вы не можете голосовать в опросах
    Вы не можете прикреплять файлы к сообщениям
    Вы можете скачивать файлы
    Ядовитая роза / The Poison Rose [2019 г., триллер, драма, HDRip, Дубляж "iTunes"] смотреть онлайн, скачать торрент picoco.icu