Достать ножи: Стеклянная луковица

MVO

Добыча

Дубляж

Уэнсдэй

1 сезон

Тор

Дубляж

13 клиническая

1 сезон

Жестокая ночь

MVO

Одни из нас

1 сезон

Deluxe

pack

Рекомендуем

30

Пиратка

ВАЖНО

ВАЖНО

Ghostwire

Пиратка

jed

RePack

nioh2

RePack

RDR2

RePack

NEED FOR SPEED™ PAYBACK

RePack

скачать торрент

Кинопоиск HD

Острые козырьки 6 сезон

6 сезон

FAR CRY 6

RePack

скачать торрент

Лицензия

скачать торрент

MVO

1

1 сезон

скачать торрент

1 сезон

скачать торрент

Лицензия

  

Загнанных лошадей пристреливают, не правда ли? / They Shoot Horses, Don't They? (Сидни Поллак) [1969, драма, BDRip 1080p] Дубляж, MVO, 2x DVO

Загнанных лошадей пристреливают, не правда ли? через торрент 2022.piratbit.fun

Размер: 11.65 GB | Добавлен: 3 года 6 мес. назад | Торрент скачан:5 раз
Смотреть онлайн | Скачать | Поддержите нас   

29-07-2019 19:09 Загнанных лошадей пристреливают, не правда ли? Скачать торрент  

Загнанных лошадей пристреливают, не правда ли? / They Shoot Horses, Don't They?
««People are the ultimate spectacle»»

Год выпуска: 1969
Страна: США
Жанр: драма
Продолжительность: 01:59:58
Перевод: Дубляж; Профессиональный [многоголосый]; Профессиональный [двухголосый]
Субтитры: русские, английские
Режиссер: Сидни Поллак
В ролях:

Джейн Фонда (Gloria), Майкл Саразин (Robert), Сюзанна Йорк (Alice), Гиг Янг (Rocky), Ред Баттонс (Sailor), Бонни Беделиа (Ruby), Майкл Конрад (Rollo), Брюс Дерн (James), Аль Льюис (Turkey), Роберт Филдс (Joel), Северн Дарден (Cecil), Эллин Энн МакЛери (Shirl)
Описание:
Америка в тяжелые годы Великой депрессии. Всюду безработица и бедность. Люди берутся за любую работу, чтобы заработать на кусок хлеба и крышу над головой. Поэтому не удивительно, что танцевальный марафон с призом в 1500 долларов легко собрал в мрачном ангаре на побережье несколько десятков участников со всей страны. Все они такие разные, но каждый готов на все ради выигрыша...
Рейтинг:
rating
Качество: BDRip 1080p
Формат: MKV
Видео: AVC, 1920x818 (2.35:1), 13127 kbps, 23,976 fps, 0,349 bpp
Аудио №1: русский / AC3 / 2.0 / 48 kHz / 128 kbps / |Советский дубляж (киностудия «Союзмультфильм»)|
Аудио №2: русский / AC3 / 2.0 / 48 kHz / 128 kbps / |Профессиональный многоголосый (Отдел дублирования ТРК 5 канал СП-б)|
Аудио №3: русский / AC3 / 2.0 / 48 kHz / 192 kbps / |Профессиональный двухголосый (Культура)|
Аудио №4: русский / AC3 / 2.0 / 48 kHz / 128 kbps / |Профессиональный двухголосый (R5)|
Аудио №5: английский / AC3 / 2.0 / 48 kHz / 192 kbps /
Навигация по главам: есть
General
Unique ID : 213894656029753173009260224644176359186 (0xA0EA9CBFA41E6257AC7D975493932F12)
Complete name : D:\They.Shoot.Horses.Dont.They.1969.BDRip.1080p.HDReactor.mkv
Format : Matroska
Format version : Version 2
File size : 11.6 GiB
Duration : 1 h 59 min
Overall bit rate : 13.9 Mb/s
Movie name : ~V ad~
Encoded date : UTC 2019-04-18 17:29:43
Writing application : mkvmerge v6.5.0 ('Isn't she lovely') built on Oct 20 2013 12:50:05
Writing library : libebml v1.3.0 + libmatroska v1.4.1
Cover : Yes
Attachments : cover.jpg

Video
ID : 1
Format : AVC
Format/Info : Advanced Video Codec
Format profile : [email protected]
Format settings, CABAC : Yes
Format settings, ReFrames : 5 frames
Codec ID : V_MPEG4/ISO/AVC
Duration : 1 h 59 min
Bit rate : 13.1 Mb/s
Width : 1 920 pixels
Height : 818 pixels
Display aspect ratio : 2.35:1
Frame rate mode : Constant
Frame rate : 23.976 (24000/1001) FPS
Color space : YUV
Chroma subsampling : 4:2:0
Bit depth : 8 bits
Scan type : Progressive
Bits/(Pixel*Frame) : 0.349
Stream size : 10.8 GiB (92%)
Title : ~V~
Writing library : x264 core 157 r2935 545de2f
Encoding settings : cabac=1 / ref=5 / deblock=1:-1:-1 / analyse=0x3:0x133 / me=umh / subme=11 / psy=1 / psy_rd=1.00:0.00 / mixed_ref=1 / me_range=32 / chroma_me=1 / trellis=2 / 8x8dct=1 / cqm=0 / deadzone=21,11 / fast_pskip=0 / chroma_qp_offset=-2 / threads=12 / lookahead_threads=1 / sliced_threads=0 / nr=0 / decimate=0 / interlaced=0 / bluray_compat=0 / constrained_intra=0 / bframes=7 / b_pyramid=2 / b_adapt=2 / b_bias=0 / direct=3 / weightb=1 / open_gop=0 / weightp=2 / keyint=240 / keyint_min=23 / scenecut=40 / intra_refresh=0 / rc=2pass / mbtree=0 / bitrate=13127 / ratetol=1.0 / qcomp=0.66 / qpmin=0 / qpmax=69 / qpstep=4 / cplxblur=20.0 / qblur=0.5 / ip_ratio=1.30 / pb_ratio=1.30 / aq=3:1.00
Language : English
Default : Yes
Forced : No

Audio #1
ID : 2
Format : AC-3
Format/Info : Audio Coding 3
Mode extension : CM (complete main)
Format settings, Endianness : Big
Codec ID : A_AC3
Duration : 1 h 59 min
Bit rate mode : Constant
Bit rate : 128 kb/s
Channel(s) : 2 channels
Channel positions : Front: L R
Sampling rate : 48.0 kHz
Frame rate : 31.250 FPS (1536 spf)
Compression mode : Lossy
Stream size : 110 MiB (1%)
Title : Дубляж[Союзмультфильм]
Language : Russian
Default : Yes
Forced : No

Audio #2
ID : 3
Format : AC-3
Format/Info : Audio Coding 3
Mode extension : CM (complete main)
Format settings, Endianness : Big
Codec ID : A_AC3
Duration : 1 h 59 min
Bit rate mode : Constant
Bit rate : 128 kb/s
Channel(s) : 2 channels
Channel positions : Front: L R
Sampling rate : 48.0 kHz
Frame rate : 31.250 FPS (1536 spf)
Compression mode : Lossy
Stream size : 110 MiB (1%)
Title : MVO[5 канал]
Language : Russian
Default : No
Forced : No

Audio #3
ID : 4
Format : AC-3
Format/Info : Audio Coding 3
Mode extension : CM (complete main)
Format settings, Endianness : Big
Codec ID : A_AC3
Duration : 1 h 59 min
Bit rate mode : Constant
Bit rate : 192 kb/s
Channel(s) : 2 channels
Channel positions : Front: L R
Sampling rate : 48.0 kHz
Frame rate : 31.250 FPS (1536 spf)
Compression mode : Lossy
Stream size : 165 MiB (1%)
Title : DVO[Культура]
Language : Russian
Default : No
Forced : No

Audio #4
ID : 5
Format : AC-3
Format/Info : Audio Coding 3
Mode extension : CM (complete main)
Format settings, Endianness : Big
Codec ID : A_AC3
Duration : 1 h 59 min
Bit rate mode : Constant
Bit rate : 128 kb/s
Channel(s) : 2 channels
Channel positions : Front: L R
Sampling rate : 48.0 kHz
Frame rate : 31.250 FPS (1536 spf)
Compression mode : Lossy
Stream size : 110 MiB (1%)
Title : DVO[R5]
Language : Russian
Default : No
Forced : No

Audio #5
ID : 6
Format : AC-3
Format/Info : Audio Coding 3
Mode extension : CM (complete main)
Format settings, Endianness : Big
Codec ID : A_AC3
Duration : 1 h 59 min
Bit rate mode : Constant
Bit rate : 192 kb/s
Channel(s) : 2 channels
Channel positions : Front: L R
Sampling rate : 48.0 kHz
Frame rate : 31.250 FPS (1536 spf)
Compression mode : Lossy
Stream size : 165 MiB (1%)
Language : English
Default : No
Forced : No

Text #1
ID : 7
Format : UTF-8
Codec ID : S_TEXT/UTF8
Codec ID/Info : UTF-8 Plain Text
Language : Russian
Default : No
Forced : No

Text #2
ID : 8
Format : UTF-8
Codec ID : S_TEXT/UTF8
Codec ID/Info : UTF-8 Plain Text
Language : English
Default : No
Forced : No

Menu
00:00:00.000 : en:Chapter 00
00:10:12.737 : en:Chapter 01
00:23:34.037 : en:Chapter 02
00:39:37.917 : en:Chapter 03
00:57:23.481 : en:Chapter 04
01:12:14.580 : en:Chapter 05
01:27:47.428 : en:Chapter 06
01:42:46.827 : en:Chapter 07
01:59:56.981 : en:Chapter 08



Скачать Загнанных лошадей пристреливают, не правда ли? через торрент http://i87.fastpic.ru/big/2019/0729/6a/e6ed44d46cdc724fd58ffa7e0efa716a.jpg Скачать, смотреть онлайн Загнанных лошадей пристреливают, не правда ли? бесплантно в хорошем качестве Описание: Америка в тяжелые годы Великой депрессии. Всюду безработица и бедность. Люди берутся за любую работу, чтобы заработать на кусок ... 10 10 2
Info! Золотая раздача, скачанное не засчитывается.
Торрент: Зарегистрирован [2019-07-29 19:09] · скачан: 5 раз
Статус: √ проверено
Размер: 11.65 GB
Как cкачать? Как скачать Загнанных лошадей пристреливают, не правда ли? через торрент | UTorrent

28-11-2019 20:33  


Отключить вcю реклaмy на сайте, в т.ч. и в плеере онлайн просмотра!

    Дорогой пользователь! Огромная просьба, поблагодарите релизера, оцените раздачу и оставьте свои комментарий, если Вы скачали Загнанных лошадей пристреливают, не правда ли? через торрент бесплатно!!
    Комментировать посты могут только пользователи прошедшие не сложную регистрацию
    Показать сообщения:    


    Загнанных лошадей пристреливают, не правда ли? через торрент
    Скачать бесплатно Загнанных лошадей пристреливают, не правда ли?
    Загнанных лошадей пристреливают, не правда ли? скачать торрент
    Загнанных лошадей пристреливают, не правда ли? смотреть онлайн
    Cкачать фильм Загнанных лошадей пристреливают, не правда ли? бесплатно
    Загнанных лошадей пристреливают, не правда ли? скачать торрент в хорошем качестве
    Загнанных лошадей пристреливают, не правда ли? смотреть онлайн бесплатно в хорошем качестве
    Вы не можете начинать темы
    Вы не можете отвечать на сообщения
    Вы не можете редактировать свои сообщения
    Вы не можете удалять свои сообщения
    Вы не можете голосовать в опросах
    Вы не можете прикреплять файлы к сообщениям
    Вы можете скачивать файлы
    Загнанных лошадей пристреливают, не правда ли? / They Shoot Horses, Don't They? [1969, драма, BDRip 1080p] Дубляж, MVO, 2x DVO смотреть онлайн, скачать торрент picoco.icu