Доктор Стрэндж

Лицензия

Добыча

Дубляж

Дом дракона

1 сезон

Тор

Дубляж

В эфире

Дубляж

Там, где раки поют

MVO

Властелин колец

1 сезон

Deluxe

pack

Рекомендуем

30

Пиратка

ВАЖНО

ВАЖНО

Ghostwire

Пиратка

jed

RePack

nioh2

RePack

RDR2

RePack

NEED FOR SPEED™ PAYBACK

RePack

скачать торрент

Кинопоиск HD

Острые козырьки 6 сезон

6 сезон

FAR CRY 6

RePack

скачать торрент

Лицензия

скачать торрент

MVO

1

1 сезон

скачать торрент

1 сезон

скачать торрент

Лицензия

  

Годзилла 2: Король монстров / Godzilla: King of the Monsters (Майкл Догерти) [2019, фантастика, фэнтези, боевик, приключения, WEB-DLRip] Дубляж [iTunes]

Годзилла 2: Король монстров через торрент 2022.piratbit.fun

Размер: 746 MB | Добавлен: 3 года 3 мес. назад | Торрент скачан:137 раз
Смотреть онлайн | Скачать   

14-08-2019 10:16 Годзилла 2: Король монстров Скачать торрент  

Годзилла 2: Король монстров / Godzilla: King of the Monsters
Год выпуска: 2019
Страна: США, Япония
Жанр: фантастика, фэнтези, боевик, приключения
Продолжительность: 02:11:39
Перевод: Дублированный | iTunes
Субтитры: отсутствуют

Режиссер: Майкл Догерти

rating

В ролях: Кайл Чандлер, Вера Фармига, Милли Бобби Браун, Кэн Ватанабэ, Чжан Цзыи, Брэдли Уитфорд, Салли Хокинс, Чарльз Дэнс, Томас Миддлдитч, Аиша Хайндс

Описание: История рассказывает о героических усилиях криптозоологического агентства «Монарх» по сдерживанию гигантских монстров. В этот раз против могучего Годзиллы выступают Мотра, Родан и ультимативный кайдзю - трёхголовый монстр Кинг Гидора. Когда эти древние суперхищники, со временем превратившиеся в полузабытые мифы, восстают снова, чтобы сойтись в схватке, человечеству остаётся отойти в сторонку и постараться не погибнуть.

Качество: WEB-DLRip
Формат: AVI

Видео: 688x288 (2.39:1), 23.976 fps, XviD build 50 ~654 kbps avg, 0.14 bit/pixel
Аудио: 48 kHz, MPEG Layer 3, 2 ch, ~128.00 kbps avg
скриншот  скриншот  скриншот  скриншот  скриншот  

Общее
Полное имя: C:Godzilla.King.of.the.Monsters.2019.AMZN.WEB-DLRip.740.mb.avi
Формат: AVI
Формат/Информация: Audio Video Interleave
Размер файла: 746 Мбайт
Продолжительность: 2 ч. 11 м.
Общий поток: 792 Кбит/сек
Программа кодирования: VirtualDubMod 1.5.10.3 | (build 2550/release)
Библиотека кодирования: VirtualDubMod build 2550/release

Видео
Идентификатор: 0
Формат: MPEG-4 Visual
Профиль формата: Advanced [email protected]
Параметр BVOP формата: 1
Параметр QPel формата: Нет
Параметр GMC формата: Без точки перехода
Параметр матрицы формата: Default (H.263)
Идентификатор кодека: XVID
Идентификатор кодека/Подсказка: XviD
Продолжительность: 2 ч. 11 м.
Битрейт: 655 Кбит/сек
Ширина: 688 пикселей
Высота: 288 пикселей
Соотношение сторон: 2,40:1
Частота кадров: 23,976 кадра/сек
Цветовое пространство: YUV
Субдискретизация насыщенности: 4:2:0
Битовая глубина: 8 бит
Тип развёртки: Прогрессивная
Метод сжатия: С потерями
Бит/(Пиксели*Кадры): 0.138
Размер потока: 616 Мбайт (83%)
Библиотека кодирования: XviD 1.2.1 (UTC 2008-12-04)

Аудио
Идентификатор: 1
Формат: MPEG Audio
Версия формата: Version 1
Профиль формата: Layer 3
Идентификатор кодека: 55
Идентификатор кодека/Подсказка: MP3
Продолжительность: 2 ч. 11 м.
Вид битрейта: Постоянный
Битрейт: 128 Кбит/сек
Каналы: 2 канала
Частота: 48,0 КГц
Метод сжатия: С потерями
Размер потока: 121 Мбайт (16%)
Выравнивание: Соединение по промежуткам
Продолжительность промежутка: 42 мс. (1,00 видеокадр)
Время предзагрузки промежутка: 504 мс.
Библиотека кодирования: LAME3.99r
Настройки программы: -m s -V 4 -q 2 -lowpass 17 -b 128




Скачать Годзилла 2: Король монстров через торрент https://i87.fastpic.ru/big/2019/0814/1a/89041a8f41fc08219b3698ae61c4a41a.jpg Скачать, смотреть онлайн Годзилла 2: Король монстров бесплантно в хорошем качестве Описание: История рассказывает о героических усилиях криптозоологического агентства «Монарх» по сдерживанию гигантских монстров. В этот раз ... 8.5 10 6
Торрент: Зарегистрирован [2019-08-14 10:16] · скачан: 137 раз
Статус: √ проверено
Размер: 746 MB
Как cкачать? Как скачать Годзилла 2: Король монстров через торрент | UTorrent

% Раздел Тема Автор DL S | L
Фильмы (HD 720p, 1080p) (48-60 fps) [ 24.09 GB ] Годзилла 2: Король монстров / Godzilla: King of the Monsters | iTunes | 1080p, 60 fps sheker187 Скачать
1 | 0
Фильмы (Blu-ray, BD-Remux, HDDVD) [ 24.84 GB ] Годзилла 2: Король монстров / Godzilla: King of the Monsters | iTunes | BD Remux 1080p bober100 Скачать
1 | 0
Фильмы 2019-2020 [DVDrip, WEB-DLRip, HDrip] (DUB, MVO) [ 2.82 GB ] Годзилла 2: Король монстров / Godzilla: King of the Monsters | iTunes | DLRip-AVC Enigma2010 Скачать
3 | 0
Фильмы (Blu-ray, BD-Remux, HDDVD) [ 45.16 GB ] Годзилла 2: Король монстров / Godzilla: King of the Monsters | Лицензия | 1080p bober100 Скачать
1 | 0
Ultra HD (UHD: 2K, 4K, 8K) [ 64.08 GB ] Годзилла 2: Король монстров / Godzilla: King of the Monsters | Лицензия | 2160p bober100 Скачать
1 | 0
Ultra HD (UHD: 2K, 4K, 8K) [ 56.65 GB ] Годзилла 2: Король монстров / Godzilla: King of the Monsters | Лицензия | 2160p bober100 Скачать
1 | 0
R.G. Resident & PiratVoice - Фильмы, Видео [ 466 MB ] Годзилла 2: Король монстров / Godzilla: King of the Monsters | iTunes | HDRip | КПК от R.G.Resident Cтрана Скачать
1 | 0

28-11-2019 20:33  


Отключить вcю реклaмy на сайте, в т.ч. и в плеере онлайн просмотра!

    Дорогой пользователь! Огромная просьба, поблагодарите релизера, оцените раздачу и оставьте свои комментарий, если Вы скачали Годзилла 2: Король монстров через торрент бесплатно!!
    Комментировать посты могут только пользователи прошедшие не сложную регистрацию
    Показать сообщения:    


    Годзилла 2: Король монстров через торрент
    Скачать бесплатно Годзилла 2: Король монстров
    Годзилла 2: Король монстров скачать торрент
    Годзилла 2: Король монстров смотреть онлайн
    Cкачать фильм Годзилла 2: Король монстров бесплатно
    Годзилла 2: Король монстров скачать торрент в хорошем качестве
    Годзилла 2: Король монстров смотреть онлайн бесплатно в хорошем качестве
    Вы не можете начинать темы
    Вы не можете отвечать на сообщения
    Вы не можете редактировать свои сообщения
    Вы не можете удалять свои сообщения
    Вы не можете голосовать в опросах
    Вы не можете прикреплять файлы к сообщениям
    Вы можете скачивать файлы
    Годзилла 2: Король монстров / Godzilla: King of the Monsters [2019, фантастика, фэнтези, боевик, приключения, WEB-DLRip] Дубляж [iTunes] смотреть онлайн, скачать торрент picoco.icu