Доктор Стрэндж

Лицензия

Добыча

Дубляж

Дом дракона

1 сезон

Тор

Дубляж

В эфире

Дубляж

Там, где раки поют

MVO

Властелин колец

1 сезон

GLOBAL

pack

Рекомендуем

30

Пиратка

ВАЖНО

ВАЖНО

Ghostwire

Пиратка

jed

RePack

nioh2

RePack

RDR2

RePack

NEED FOR SPEED™ PAYBACK

RePack

скачать торрент

Кинопоиск HD

Острые козырьки 6 сезон

6 сезон

FAR CRY 6

RePack

скачать торрент

Лицензия

скачать торрент

MVO

1

1 сезон

скачать торрент

1 сезон

скачать торрент

Лицензия

  

Свет моей жизни / Light of My Life (Кейси Аффлек) [2019, Драма, WEB-DLRip-AVC] MVO [HDRezka]

Свет моей жизни через торрент 2022.piratbit.fun

Размер: 1.94 GB | Добавлен: 3 года 3 мес. назад | Торрент скачан:81 раз
Смотреть онлайн | Скачать   

17-08-2019 19:48 Свет моей жизни Скачать торрент  

Свет моей жизни / Light of My Life
Год выпуска: 2019
Страна: США
Жанр: Драма
Продолжительность: 01:59:53
Перевод: Профессиональный (многоголосый) | HDRezka
Субтитры: Отсутствуют

Режиссер: Кейси Аффлек

rating

В ролях: Элизабет Мосс, Кейси Аффлек, Анна Пнёвски, Том Бауэр, Тимоти Уэббер, Хротгар Мэтьюз, Джесси Джеймс Пирс, Ллойд Каннингэм, Кори Грим, Монк Серрелл Фрид

Описание: Восемь лет назад человечество поразил неизвестный вирус, убивший практически всех женщин на земле. Мужчина с 12-летней дочерью, у которой оказался иммунитет к заболеванию, путешествует по лесам Северной Америки, лишь при большой надобности приближаясь к городам. Отец всеми силами пытается оградить девочку от опасностей, подстерегающих путников на каждом шагу.

Качество: WEB-DLRip-AVC
Формат: MKV

Видео: 1024x576 (16:9), 23,976 fps, x264 ~2 119 kbps avg, 0.150 bit/pixel
Аудио: 48 kHz, AC3 Dolby Digital, 2 (L,R) ch, ~192.00 kbps avg | RUS (HDRezka)
скриншот  скриншот  скриншот  скриншот  скриншот  

Общее
Уникальный идентификатор : 120493115257067738551282162178982642722 (0x5AA6213F97EBDB4EA7C0C36D9BCB8422)
Полное имя : F:OlLanDGroupLight.of.My.Life.2019.WEB-DLRip(AVC).OllanDGroup.mkv
Формат : Matroska
Версия формата : Version 4 / Version 2
Размер файла : 1,94 Гбайт
Продолжительность : 1 ч. 59 м.
Общий поток : 2312 Кбит/сек
Название фильма : Light.of.My.Life.2019 #TorpedoUK#
Дата кодирования : UTC 2019-08-17 13:55:00
Программа кодирования : mkvmerge v29.0.0 ('Like It Or Not') 64-bit
Библиотека кодирования : libebml v1.3.6 + libmatroska v1.4.9

Видео
Идентификатор : 1
Формат : AVC
Формат/Информация : Advanced Video Codec
Профиль формата : [email protected]
Параметр CABAC формата : Да
Параметр ReFrames формата : 10 кадров
Идентификатор кодека : V_MPEG4/ISO/AVC
Продолжительность : 1 ч. 59 м.
Битрейт : 2119 Кбит/сек
Ширина : 1024 пикселя
Высота : 576 пикселей
Соотношение сторон : 16:9
Режим частоты кадров : Постоянный
Частота кадров : 23,976 (24000/1001) кадра/сек
Цветовое пространство : YUV
Субдискретизация насыщенности : 4:2:0
Битовая глубина : 8 бит
Тип развёртки : Прогрессивная
Бит/(Пиксели*Кадры) : 0.150
Размер потока : 1,77 Гбайт (92%)
Библиотека кодирования : x264 core 146 r2538 121396c
Настройки программы : cabac=1 / ref=10 / deblock=1:-2:-3 / analyse=0x3:0x113 / me=umh / subme=10 / psy=1 / psy_rd=0.90:0.10 / mixed_ref=1 / me_range=48 / chroma_me=1 / trellis=2 / 8x8dct=1 / cqm=0 / deadzone=21,11 / fast_pskip=1 / chroma_qp_offset=-3 / threads=6 / lookahead_threads=1 / sliced_threads=0 / nr=0 / decimate=1 / interlaced=0 / bluray_compat=0 / constrained_intra=0 / bframes=11 / b_pyramid=2 / b_adapt=2 / b_bias=0 / direct=3 / weightb=1 / open_gop=0 / weightp=2 / keyint=240 / keyint_min=23 / scenecut=40 / intra_refresh=0 / rc_lookahead=40 / rc=2pass / mbtree=0 / bitrate=2119 / ratetol=1.0 / qcomp=0.60 / qpmin=0 / qpmax=69 / qpstep=4 / cplxblur=20.0 / qblur=0.5 / vbv_maxrate=50000 / vbv_bufsize=62500 / nal_hrd=none / filler=0 / ip_ratio=1.40 / pb_ratio=1.30 / aq=1:1.00
Язык : English
Default : Да
Forced : Нет

Аудио
Идентификатор : 2
Формат : AC-3
Формат/Информация : Audio Coding 3
Расширение режима : CM (complete main)
Параметр Endianness формата : Big
Идентификатор кодека : A_AC3
Продолжительность : 1 ч. 59 м.
Вид битрейта : Постоянный
Битрейт : 192 Кбит/сек
Каналы : 2 канала
Расположение каналов : Front: L R
Частота : 48,0 КГц
Частота кадров : 31,250 кадров/сек (1536 spf)
Битовая глубина : 16 бит
Метод сжатия : С потерями
Размер потока : 165 Мбайт (8%)
Заголовок : MVO [HDRezka]
Язык : Russian
Default : Да
Forced : Нет

Меню
00:00:00.000 : en:Chapter 1
00:12:12.000 : en:Chapter 2
00:18:42.000 : en:Chapter 3
00:26:55.000 : en:Chapter 4
00:35:28.000 : en:Chapter 5
00:43:27.000 : en:Chapter 6
00:48:53.000 : en:Chapter 7
00:58:48.000 : en:Chapter 8
01:09:03.000 : en:Chapter 9
01:15:24.000 : en:Chapter 10
01:21:29.000 : en:Chapter 11
01:26:42.000 : en:Chapter 12
01:32:48.000 : en:Chapter 13
01:38:10.000 : en:Chapter 14
01:47:52.000 : en:Chapter 15
01:55:12.000 : en:Chapter 16




Скачать Свет моей жизни через торрент https://i106.fastpic.ru/big/2019/0817/20/32b9c4c429511f4c0903d29a552b3a20.jpg Скачать, смотреть онлайн Свет моей жизни бесплантно в хорошем качестве Описание: Восемь лет назад человечество поразил неизвестный вирус, убивший практически всех женщин на земле. Мужчина с 12-летней дочерью, у ... 10 10 5
Торрент: Зарегистрирован [2019-08-17 19:48] · скачан: 81 раз
Статус: T временная
Размер: 1.94 GB
Как cкачать? Как скачать Свет моей жизни через торрент | UTorrent

% Раздел Тема Автор DL S | L
Фильмы [HD 720p, 1080p] (Хороший звук DUB, MVO) [ 15.16 GB ] Свет моей жизни / Light of My Life | iTunes | 1080p bober100 Скачать
1 | 0
Фильмы 2019-2020 [DVDrip, WEB-DLRip, HDrip] (DUB, MVO) [ 2.14 GB ] Свет моей жизни / Light of My Life | Лицензия | BDRip Twi7ter Скачать
1 | 0
Фильмы 2019-2020 [DVDrip, WEB-DLRip, HDrip] (DUB, MVO) [ 1.47 GB ] Свет моей жизни / Light of My Life | iTunes | BDRip bober100 Скачать
1 | 0
Фильмы 2019-2020 [DVDrip, WEB-DLRip, HDrip] (DUB, MVO) [ 2.14 GB ] Свет моей жизни / Light of My Life | iTunes | BDRip bober100 Скачать
1 | 0
Фильмы (Blu-ray, BD-Remux, HDDVD) [ 33.25 GB ] Свет моей жизни / Light of My Life | iTunes | BD Remux 1080p bober100 Скачать
1 | 0

28-11-2019 20:33  


Отключить вcю реклaмy на сайте, в т.ч. и в плеере онлайн просмотра!

    Дорогой пользователь! Огромная просьба, поблагодарите релизера, оцените раздачу и оставьте свои комментарий, если Вы скачали Свет моей жизни через торрент бесплатно!!
    Комментировать посты могут только пользователи прошедшие не сложную регистрацию
    Показать сообщения:    


    Свет моей жизни через торрент
    Скачать бесплатно Свет моей жизни
    Свет моей жизни скачать торрент
    Свет моей жизни смотреть онлайн
    Cкачать фильм Свет моей жизни бесплатно
    Свет моей жизни скачать торрент в хорошем качестве
    Свет моей жизни смотреть онлайн бесплатно в хорошем качестве
    Вы не можете начинать темы
    Вы не можете отвечать на сообщения
    Вы не можете редактировать свои сообщения
    Вы не можете удалять свои сообщения
    Вы не можете голосовать в опросах
    Вы не можете прикреплять файлы к сообщениям
    Вы можете скачивать файлы
    Свет моей жизни / Light of My Life [2019, Драма, WEB-DLRip-AVC] MVO [HDRezka] смотреть онлайн, скачать торрент picoco.icu