Доктор Стрэндж

Лицензия

Добыча

Дубляж

Дом дракона

1 сезон

Тор

Дубляж

В эфире

Дубляж

Там, где раки поют

MVO

Властелин колец

1 сезон

GLOBAL

pack

Рекомендуем

30

Пиратка

ВАЖНО

ВАЖНО

Ghostwire

Пиратка

jed

RePack

nioh2

RePack

RDR2

RePack

NEED FOR SPEED™ PAYBACK

RePack

скачать торрент

Кинопоиск HD

Острые козырьки 6 сезон

6 сезон

FAR CRY 6

RePack

скачать торрент

Лицензия

скачать торрент

MVO

1

1 сезон

скачать торрент

1 сезон

скачать торрент

Лицензия

  

Ма / Ма (Тейт Тейлор) [2019, ужасы, триллер, BDRip-AVC] Дубляж [Лицензия] - ExKinoRay

Ма через торрент 2022.piratbit.fun

Раздают: 1 [ 0 KB/s ]
Размер: 1.9 GB | Добавлен: 3 года 1 мес. назад | Торрент скачан:206 раз
Смотреть онлайн | Скачать   

18-08-2019 05:39 Ма Скачать торрент  

Название: Ма
Оригинальное название: Ma
Год выпуска: 2019
Жанр: Ужасы, триллер
Режиссер: Тейт Тейлор
В ролях: Октавия Спенсер, Диана Сильверс, Джульетт Льюис, МакКэйли Миллер, Кори Фогельманис, Джанни Паоло, Данте Браун, Таниэлл Уиверс, Доминик Бёрджесс, Хизер Мари Пэйт, Люк Эванс

Описание: Все знают, что у МА самые крутые вечеринки в городе. Здесь всегда громкая музыка, и алкоголь льется рекой. В этом доме нет никаких ограничений, кроме одного: никогда не заходи в ее комнату.

rating

Страна: США
Студия: Blumhouse Productions, Hurwitz Creative, Wyolah Films
Продолжительность: 01:39:21
Перевод: Дублированный | Лицензия

Качество: BDRip-AVC
Видео: MPEG-4 AVC, 1838 Kбит/с, 1024x428, 23.976 кадр/с
Аудио #01: 48 kHz, AC3, 5.1, 448 Kbps | Лицензия | RUS |
Аудио #02: 48 kHz, AC3, 5.1, 448 Kbps | Оригинал | ENG |
Субтитры: Русские (Forced, full), английские
General
Unique ID : 201850180205451093189162961712051299964 (0x97DAEE3E03AC0E8C854F23362EC2A67C)
Complete name : F:\Ma.2019.BDRip.AVC.ExKinoRay.mkv
Format : Matroska
Format version : Version 2
File size : 1.90 GiB
Duration : 1 h 39 min
Overall bit rate : 2 732 kb/s
Movie name : Ma 2019 from ExKinoRay
Encoded date : UTC 2019-10-03 00:55:11
Writing application : mkvmerge v5.6.0 ('Kenya Kane') built on May 27 2012 16:44:04
Writing library : libebml v1.2.3 + libmatroska v1.3.0

Video
ID : 1
Format : AVC
Format/Info : Advanced Video Codec
Format profile : [email protected]
Format settings, CABAC : Yes
Format settings, ReFrames : 12 frames
Codec ID : V_MPEG4/ISO/AVC
Duration : 1 h 39 min
Bit rate : 1 838 kb/s
Width : 1 024 pixels
Height : 428 pixels
Display aspect ratio : 2.40:1
Frame rate mode : Constant
Frame rate : 23.976 (23976/1000) FPS
Color space : YUV
Chroma subsampling : 4:2:0
Bit depth : 8 bits
Scan type : Progressive
Bits/(Pixel*Frame) : 0.175
Stream size : 1.24 GiB (65%)
Title : Enigma
Writing library : x264 core 152 r2851 ba24899
Encoding settings : cabac=1 / ref=12 / deblock=1:-2:-2 / analyse=0x3:0x113 / me=umh / subme=10 / psy=1 / psy_rd=1.00:0.00 / mixed_ref=1 / me_range=32 / chroma_me=1 / trellis=2 / 8x8dct=1 / cqm=0 / deadzone=21,11 / fast_pskip=0 / chroma_qp_offset=-2 / threads=12 / lookahead_threads=3 / sliced_threads=0 / nr=0 / decimate=0 / interlaced=0 / bluray_compat=0 / constrained_intra=0 / bframes=12 / b_pyramid=2 / b_adapt=2 / b_bias=0 / direct=3 / weightb=1 / open_gop=0 / weightp=2 / keyint=240 / keyint_min=23 / scenecut=40 / intra_refresh=0 / rc=2pass / mbtree=0 / bitrate=1838 / ratetol=1.0 / qcomp=0.60 / qpmin=0 / qpmax=51 / qpstep=4 / cplxblur=20.0 / qblur=0.5 / ip_ratio=1.32 / pb_ratio=1.30 / aq=3:1.00
Language : English
Default : Yes
Forced : No
Color range : Limited
Color primaries : BT.709
Transfer characteristics : BT.709
Matrix coefficients : BT.709

Audio #1
ID : 2
Format : AC-3
Format/Info : Audio Coding 3
Mode extension : CM (complete main)
Format settings, Endianness : Big
Codec ID : A_AC3
Duration : 1 h 39 min
Bit rate mode : Constant
Bit rate : 448 kb/s
Channel(s) : 6 channels
Channel positions : Front: L C R, Side: L R, LFE
Sampling rate : 48.0 kHz
Frame rate : 31.250 FPS (1536 spf)
Compression mode : Lossy
Stream size : 318 MiB (16%)
Title : Дубляж (Blu-Ray)
Language : Russian
Default : Yes
Forced : No

Audio #2
ID : 3
Format : AC-3
Format/Info : Audio Coding 3
Mode extension : CM (complete main)
Format settings, Endianness : Big
Codec ID : A_AC3
Duration : 1 h 39 min
Bit rate mode : Constant
Bit rate : 448 kb/s
Channel(s) : 6 channels
Channel positions : Front: L C R, Side: L R, LFE
Sampling rate : 48.0 kHz
Frame rate : 31.250 FPS (1536 spf)
Compression mode : Lossy
Stream size : 318 MiB (16%)
Language : English
Default : No
Forced : No

Text #1
ID : 4
Format : UTF-8
Codec ID : S_TEXT/UTF8
Codec ID/Info : UTF-8 Plain Text
Title : Forced
Language : Russian
Default : Yes
Forced : No

Text #2
ID : 5
Format : UTF-8
Codec ID : S_TEXT/UTF8
Codec ID/Info : UTF-8 Plain Text
Title : Full
Language : Russian
Default : No
Forced : No

Text #3
ID : 6
Format : UTF-8
Codec ID : S_TEXT/UTF8
Codec ID/Info : UTF-8 Plain Text
Title : Full
Language : English
Default : No
Forced : No

Text #4
ID : 7
Format : UTF-8
Codec ID : S_TEXT/UTF8
Codec ID/Info : UTF-8 Plain Text
Title : SDH
Language : English
Default : No
Forced : No

Menu
00:00:00.000 : en:Chapter 1
00:05:07.807 : en:Chapter 2
00:10:42.350 : en:Chapter 3
00:15:52.743 : en:Chapter 4
00:19:27.166 : en:Chapter 5
00:25:44.209 : en:Chapter 6
00:30:02.801 : en:Chapter 7
00:35:02.392 : en:Chapter 8
00:40:19.792 : en:Chapter 9
00:45:13.836 : en:Chapter 10
00:50:08.964 : en:Chapter 11
00:54:34.688 : en:Chapter 12
00:57:49.675 : en:Chapter 13
01:02:11.019 : en:Chapter 14
01:06:09.299 : en:Chapter 15
01:11:45.301 : en:Chapter 16
01:16:23.829 : en:Chapter 17
01:20:30.868 : en:Chapter 18
01:25:23.327 : en:Chapter 19
01:32:41.473 : en:Chapter 20


Релиз от: VK релиз-группы

Автор релиза: Enigma



Скачать Ма через торрент https://a.radikal.ru/a24/1908/9d/3e59655f6a38.jpg Скачать, смотреть онлайн Ма бесплантно в хорошем качестве Описание: Все знают, что у МА самые крутые вечеринки в городе. Здесь всегда громкая музыка, и алкоголь льется рекой. В этом доме нет ... 8.9 10 17
Info! Золотая раздача, скачанное не засчитывается.
Торрент: Зарегистрирован [2019-10-03 01:19] · скачан: 206 раз
Статус: √ проверено
Размер: 1.9 GB
Как cкачать? Как скачать Ма через торрент | UTorrent




Последний раз редактировалось: Enigma2010 (2019-10-03 01:19), всего редактировалось 2 раз(а)

28-11-2019 20:33  


Отключить вcю реклaмy на сайте, в т.ч. и в плеере онлайн просмотра!

20-08-2019 21:29 Ма Скачать торрент  

прям так? ни от кого ни слова? кто-нибудь, отзовитесь по-фильму, пожалста.



03-10-2019 01:20 Ма Скачать торрент  

Замена на лицензию.



    Дорогой пользователь! Огромная просьба, поблагодарите релизера, оцените раздачу и оставьте свои комментарий, если Вы скачали Ма через торрент бесплатно!!
    Комментировать посты могут только пользователи прошедшие не сложную регистрацию
    Показать сообщения:    


    Ма через торрент
    Скачать бесплатно Ма
    Ма скачать торрент
    Ма смотреть онлайн
    Cкачать фильм Ма бесплатно
    Ма скачать торрент в хорошем качестве
    Ма смотреть онлайн бесплатно в хорошем качестве
    Вы не можете начинать темы
    Вы не можете отвечать на сообщения
    Вы не можете редактировать свои сообщения
    Вы не можете удалять свои сообщения
    Вы не можете голосовать в опросах
    Вы не можете прикреплять файлы к сообщениям
    Вы можете скачивать файлы
    Ма / Ма [2019, ужасы, триллер, BDRip-AVC] Дубляж [Лицензия] - ExKinoRay смотреть онлайн, скачать торрент picoco.icu