Доктор Стрэндж

Лицензия

Добыча

Дубляж

Дом дракона

1 сезон

Тор

Дубляж

В эфире

Дубляж

Там, где раки поют

MVO

Властелин колец

1 сезон

GLOBAL

pack

Рекомендуем

30

Пиратка

ВАЖНО

ВАЖНО

Ghostwire

Пиратка

jed

RePack

nioh2

RePack

RDR2

RePack

NEED FOR SPEED™ PAYBACK

RePack

скачать торрент

Кинопоиск HD

Острые козырьки 6 сезон

6 сезон

FAR CRY 6

RePack

скачать торрент

Лицензия

скачать торрент

MVO

1

1 сезон

скачать торрент

1 сезон

скачать торрент

Лицензия

  

Добро пожаловать в Акапулько / Welcome to Acapulco (Гильермо Иван) [2019, боевик, триллер, комедия, BDRip] Дубляж [Лицензия]

Добро пожаловать в Акапулько через торрент 2022.piratbit.fun

Размер: 1.46 GB | Добавлен: 3 года 3 мес. назад | Торрент скачан:120 раз
Смотреть онлайн | Скачать   

20-08-2019 09:18 Добро пожаловать в Акапулько Скачать торрент  

Добро пожаловать в Акапулько / Welcome to Acapulco
Год выпуска: 2019
Страна: Мексика , США
Жанр: боевик, триллер, комедия
Продолжительность: 01:28:59
Перевод: Дублированный | Лицензия
Субтитры: отсутствуют

Режиссер: Гильермо Иван

rating семпл

В ролях: Уильям Болдуин, Майкл Мэдсен, Брэдли Грегг, Ана Серрадилья, Майкл Кингсбэйкер, Анна Лаевская, Гильермо Иван, Зэк Роуз, Гильермо Гарсия, Мария Елена Эредия

Описание: У разработчика компьютерных игр Мэтта Бута есть один шанс спасти свою карьеру, представив свой самый крупный проект на церемонии вручения наград в американском Нью-Мексико. Но весело отметив встречу с приятелем в аэропорту, он оказывается в мексиканском городе Акапулько. После приземления Мэтт оказывается объектом охоты преступников, киллеров и федералов, ищущих таинственный пакет, который он якобы провез через таможню, но о котором ничего не знает. Объединившись с роковой красоткой и выпустив на волю своего «внутреннего экшен героя», он раскрывает заговор, который может потрясти все Соединенные Штаты, а возможно, и целый мир...

Качество: BDRip
Формат: AVI

Видео: 720x304 (2.35:1), 23.976 fps, XviD build 73 ~1 897 kbps avg
Аудио: 48.0 kHz, AC3 Dolby Digital, 3/2 (L,C,R,l,r) + LFE ch, ~448 kbps
скриншот  скриншот  скриншот  

General
Формат : AVI
Формат/Информация : Audio Video Interleave
Размер файла : 1,46 Гбайт
Продолжительность : 1 ч. 28 м.
Общий поток : 2354 Кбит/сек
Название фильма : Добро пожаловать в Акапулько_2019_BDRip
Программа кодирования : VirtualDubMod 1.5.10.3 | (build 2550/release)
Авторское право : порошков

Видео
Идентификатор : 0
Формат : MPEG-4 Visual
Профиль формата : Advanced [email protected]
Настройки формата : BVOP1 / Custom Matrix
Параметр BVOP формата : 1
Параметр QPel формата : Нет
Параметр GMC формата : Без точки перехода
Параметр матрицы формата : Выборочная
Идентификатор кодека : XVID
Идентификатор кодека/Подсказка : XviD
Продолжительность : 1 ч. 28 м.
Битрейт : 1897 Кбит/сек
Ширина : 720 пикселей
Высота : 304 пикселя
Соотношение сторон : 2,35:1
Частота кадров : 23,976 (24000/1001) кадра/сек
Цветовое пространство : YUV
Субдискретизация насыщенности : 4:2:0
Битовая глубина : 8 бит
Тип развёртки : Прогрессивная
Метод сжатия : С потерями
Бит/(Пиксели*Кадры) : 0.361
Размер потока : 1,17 Гбайт (81%)
Библиотека кодирования : XviD 73

Аудио
Идентификатор : 1
Формат : AC-3
Формат/Информация : Audio Coding 3
Коммерческое название : Dolby Digital
Идентификатор кодека : 2000
Продолжительность : 1 ч. 28 м.
Вид битрейта : Постоянный
Битрейт : 448 Кбит/сек
Каналы : 6 каналов
ChannelLayout : L R C LFE Ls Rs
Частота : 48,0 КГц
Частота кадров : 31,250 кадров/сек (1536 SPF)
Битовая глубина : 16 бит
Метод сжатия : С потерями
Размер потока : 284 Мбайт (19%)
Выравнивание : Разделение по промежуткам
Продолжительность промежутка : 42 мс. (1,00 видеокадр)
Время предзагрузки промежутка : 500 мс.




Скачать Добро пожаловать в Акапулько через торрент https://b.radikal.ru/b29/1903/42/865fc0f052a2.jpg Скачать, смотреть онлайн Добро пожаловать в Акапулько бесплантно в хорошем качестве Описание: У разработчика компьютерных игр Мэтта Бута есть один шанс спасти свою карьеру, представив свой самый крупный проект на церемонии ... 10 10 4
Info! Золотая раздача, скачанное не засчитывается.
Торрент: Зарегистрирован [2019-08-20 09:18] · скачан: 120 раз
Статус: √ проверено
Размер: 1.46 GB
Как cкачать? Как скачать Добро пожаловать в Акапулько через торрент | UTorrent

% Раздел Тема Автор DL S | L
Фильмы [HD 720p, 1080p] (Хороший звук DUB, MVO) [ 3.12 GB ] Добро пожаловать в Акапулько / Welcome to Acapulco | HDRezka Studio | 720p Enigma2010 Скачать
2 | 0
Фильмы 2019-2020 [DVDrip, WEB-DLRip, HDrip] (DUB, MVO) [ 1.46 GB ] Добро пожаловать в Акапулько / Welcome to Acapulco | Лицензия | BDRip Twi7ter Скачать
2 | 0
Фильмы 2019-2020 [DVDrip, WEB-DLRip, HDrip] (DUB, MVO) [ 1.75 GB ] Добро пожаловать в Акапулько / Welcome to Acapulco | Лицензия R5 | BDRip-AVC bober100 Скачать
1 | 0
Фильмы (Blu-ray, BD-Remux, HDDVD) [ 16.38 GB ] Добро пожаловать в Акапулько / Welcome to Acapulco | Лицензия | BD Remux 1080p bober100 Скачать
1 | 0
Фильмы 2019-2020 [DVDrip, WEB-DLRip, HDrip] (DUB, MVO) [ 743 MB ] Добро пожаловать в Акапулько / Welcome to Acapulco | Лицензия | BDRip bober100 Скачать
1 | 0
T Фильмы (WEB-DL 720p, 1080p) [ 3.19 GB ] Добро пожаловать в Акапулько / Welcome to Acapulco | HDRezka Studio | 1080p Enigma2010 Скачать
1 | 0
T Фильмы 2019-2020 [DVDrip, WEB-DLRip, HDrip] (DUB, MVO) [ 1.37 GB ] Добро пожаловать в Акапулько / Welcome to Acapulco | HDRezka Studio | DLRip Enigma2010 Скачать
1 | 0

28-11-2019 20:33  


Отключить вcю реклaмy на сайте, в т.ч. и в плеере онлайн просмотра!

    Дорогой пользователь! Огромная просьба, поблагодарите релизера, оцените раздачу и оставьте свои комментарий, если Вы скачали Добро пожаловать в Акапулько через торрент бесплатно!!
    Комментировать посты могут только пользователи прошедшие не сложную регистрацию
    Показать сообщения:    


    Добро пожаловать в Акапулько через торрент
    Скачать бесплатно Добро пожаловать в Акапулько
    Добро пожаловать в Акапулько скачать торрент
    Добро пожаловать в Акапулько смотреть онлайн
    Cкачать фильм Добро пожаловать в Акапулько бесплатно
    Добро пожаловать в Акапулько скачать торрент в хорошем качестве
    Добро пожаловать в Акапулько смотреть онлайн бесплатно в хорошем качестве
    Вы не можете начинать темы
    Вы не можете отвечать на сообщения
    Вы не можете редактировать свои сообщения
    Вы не можете удалять свои сообщения
    Вы не можете голосовать в опросах
    Вы не можете прикреплять файлы к сообщениям
    Вы можете скачивать файлы
    Добро пожаловать в Акапулько / Welcome to Acapulco [2019, боевик, триллер, комедия, BDRip] Дубляж [Лицензия] смотреть онлайн, скачать торрент picoco.icu