Доктор Стрэндж

Лицензия

Добыча

Дубляж

Уэнсдэй

1 сезон

Тор

Дубляж

В эфире

Дубляж

Там, где раки поют

MVO

Властелин колец

1 сезон

Deluxe

pack

Рекомендуем

30

Пиратка

ВАЖНО

ВАЖНО

Ghostwire

Пиратка

jed

RePack

nioh2

RePack

RDR2

RePack

NEED FOR SPEED™ PAYBACK

RePack

скачать торрент

Кинопоиск HD

Острые козырьки 6 сезон

6 сезон

FAR CRY 6

RePack

скачать торрент

Лицензия

скачать торрент

MVO

1

1 сезон

скачать торрент

1 сезон

скачать торрент

Лицензия

  

Куриоса / Curiosa (Лу Жене) [2019 г., мелодрама, история, WEB-DLRip, Дубляж "iTunes"]

Куриоса через торрент 2022.piratbit.fun

Размер: 706 MB | Добавлен: 3 года 3 мес. назад | Торрент скачан:55 раз
Смотреть онлайн | Скачать   

22-08-2019 18:40 Куриоса Скачать торрент  

Куриоса / Curiosa
Год выпуска: 2019
Страна: Франция / Curiosa Films, Memento Films International, Memento Films Distribution
Жанр: мелодрама, история
Продолжительность: 01:44:53
Перевод: Дубляж (iTunes)

Режиссер: Лу Жене

rating

В ролях: Ноэми Мерлан, Нильс Шнайдер, Бенжамен Лаверн, Камелия Джордана, Амира Касар, Скали Дельпейра, Эмильен Дьяр-Детоф, Матильда Варнье, Мелоди Ришар, Дамиен Боннар

Описание: Чувственный любовный треугольник в богемной атмосфере Парижа конца XIX века. Двое мужчин влюблены в одну женщину, а запреты существуют для того, чтобы их нарушать. В основе фильма - дневники и письма известных светских персонажей того времени.

Качество: WEB-DLRip
Формат: AVI
Видео кодек: XviD
Аудио кодек: MP3
Видео: 640x344 (1.86:1), 24.000 fps, XviD build 50 ~803 kbps avg, 0.15 bit/pixel
Аудио: 48 kHz, MPEG Layer 3, 2 ch, ~128.00 kbps avg
скриншот   скриншот   скриншот   скриншот  

Общее
Полное имя : F:\ФИЛЬМЫ\Куриоса.2019.D.WEB-DLRip.avi
Формат : AVI
Формат/Информация : Audio Video Interleave
Размер файла : 706 Мбайт
Продолжительность : 1 ч. 44 м.
Общий поток : 941 Кбит/сек
Программа кодирования : VirtualDubMod 1.5.10.3 | www.virtualdub-fr.org || (build 2550/release)
Библиотека кодирования : VirtualDubMod build 2550/release

Видео
Идентификатор : 0
Формат : MPEG-4 Visual
Профиль формата : Advanced [email protected]
Настройки формата : BVOP3 / GMC3 / QPel
Параметр BVOP формата : 3
Параметр QPel формата : Да
Параметр GMC формата : 3 точки перехода
Параметр матрицы формата : Default (MPEG)
Идентификатор кодека : XVID
Идентификатор кодека/Подсказка : XviD
Продолжительность : 1 ч. 44 м.
Битрейт : 803 Кбит/сек
Ширина : 640 пикселей
Высота : 344 пикселя
Соотношение сторон : 1,85:1
Частота кадров : 24,000 кадра/сек
Цветовое пространство : YUV
Субдискретизация насыщенности : 4:2:0
Битовая глубина : 8 бит
Тип развёртки : Прогрессивная
Метод сжатия : С потерями
Бит/(Пиксели*Кадры) : 0.152
Размер потока : 603 Мбайт (85%)
Библиотека кодирования : XviD 1.2.1 (UTC 2008-12-04)

Аудио
Идентификатор : 1
Формат : MPEG Audio
Версия формата : Version 1
Профиль формата : Layer 3
Настройки формата : Joint stereo / MS Stereo
Идентификатор кодека : 55
Идентификатор кодека/Подсказка : MP3
Продолжительность : 1 ч. 44 м.
Вид битрейта : Постоянный
Битрейт : 128 Кбит/сек
Каналы : 2 канала
Частота : 48,0 КГц
Частота кадров : 41,667 кадра/сек (1152 SPF)
Метод сжатия : С потерями
Размер потока : 96,0 Мбайт (14%)
Выравнивание : Соединение по промежуткам
Продолжительность промежутка : 42 мс. (1,00 видеокадр)
Время предзагрузки промежутка : 504 мс.
Библиотека кодирования : LAME3.99r
Настройки программы : -m j -V 4 -q 2 -lowpass 17 -b 128




Скачать Куриоса через торрент https://pic1.kartinco.top/images/12/qw62h.jpg Скачать, смотреть онлайн Куриоса бесплантно в хорошем качестве Описание: Чувственный любовный треугольник в богемной атмосфере Парижа конца XIX века. Двое мужчин влюблены в одну женщину, а запреты ... 1 10 1
Торрент: Зарегистрирован [2019-08-22 18:40] · скачан: 55 раз
Статус: √ проверено
Размер: 706 MB
Как cкачать? Как скачать Куриоса через торрент | UTorrent

% Раздел Тема Автор DL S | L
Фильмы 2019-2020 [DVDrip, WEB-DLRip, HDrip] (DUB, MVO) [ 1.46 GB ] Куриоса / Curiosa | iTunes | BDRip bober100 Скачать
2 | 0
Фильмы (WEB-DL 720p, 1080p) [ 3.57 GB ] Куриоса / Curiosa | iTunes | 720p bober100 Скачать
1 | 0
Фильмы 2019-2020 [DVDrip, WEB-DLRip, HDrip] (DUB, MVO) [ 1.53 GB ] Куриоса / Curiosa | iTunes | DLRip-AVC Enigma2010 Скачать
4 | 0
Фильмы (WEB-DL 720p, 1080p) [ 3.86 GB ] Куриоса / Curiosa | iTunes | 1080p bober100 Скачать
1 | 0

28-11-2019 20:33  


Отключить вcю реклaмy на сайте, в т.ч. и в плеере онлайн просмотра!

    Дорогой пользователь! Огромная просьба, поблагодарите релизера, оцените раздачу и оставьте свои комментарий, если Вы скачали Куриоса через торрент бесплатно!!
    Комментировать посты могут только пользователи прошедшие не сложную регистрацию
    Показать сообщения:    


    Куриоса через торрент
    Скачать бесплатно Куриоса
    Куриоса скачать торрент
    Куриоса смотреть онлайн
    Cкачать фильм Куриоса бесплатно
    Куриоса скачать торрент в хорошем качестве
    Куриоса смотреть онлайн бесплатно в хорошем качестве
    Вы не можете начинать темы
    Вы не можете отвечать на сообщения
    Вы не можете редактировать свои сообщения
    Вы не можете удалять свои сообщения
    Вы не можете голосовать в опросах
    Вы не можете прикреплять файлы к сообщениям
    Вы можете скачивать файлы
    Куриоса / Curiosa [2019 г., мелодрама, история, WEB-DLRip, Дубляж "iTunes"] смотреть онлайн, скачать торрент picoco.icu