Доктор Стрэндж

Лицензия

Добыча

Дубляж

Дом дракона

1 сезон

Тор

Дубляж

В эфире

Дубляж

Там, где раки поют

MVO

Властелин колец

1 сезон

GLOBAL

pack

Рекомендуем

30

Пиратка

ВАЖНО

ВАЖНО

Ghostwire

Пиратка

jed

RePack

nioh2

RePack

RDR2

RePack

NEED FOR SPEED™ PAYBACK

RePack

скачать торрент

Кинопоиск HD

Острые козырьки 6 сезон

6 сезон

FAR CRY 6

RePack

скачать торрент

Лицензия

скачать торрент

MVO

1

1 сезон

скачать торрент

1 сезон

скачать торрент

Лицензия

  

Амундсен / Amundsen (Эспен Сандберг) [2019, Приключения, биография, драма, история, BDRip-AVC] Дубляж [iTunes]

Амундсен через торрент 2022.piratbit.fun

Размер: 1.9 GB | Добавлен: 3 года 3 мес. назад | Торрент скачан:206 раз
Смотреть онлайн | Скачать   

23-08-2019 08:12 Амундсен Скачать торрент  

Амундсен / Amundsen«Сквозь тайны вечного холода»
Год выпуска: 2019
Страна: Норвегия
Жанр: Приключения, биография, драма, история
Продолжительность: 02:04:57
Перевод: Дублированный | iTunes
Субтитры: Английские (полные)

Режиссер: Эспен Сандберг

rating

В ролях: Кэтрин Уотерстон, Пол Сверре Валхейм, Хаген, Йонас Страндт Гравли, Кристиан Рубек, Фритьоф Сохэйм, Мадс Сьёгард Петтерсен, Оле Кристоффер Эртвог, Тронд Эспен Сейм, Ида Урсин-Хольм, Тед Отис

Описание: Молодой норвежский путешественник грезит об открытии неизведанных полярных земель. В погоне за мечтой и грандиозными свершениями герой жертвует всем: семейными узами, дружбой, любовью всей жизни. Получая взамен ледяные пустыни, бездонные трещины, нечеловеческий холод, метели и вечную мерзлоту.

Качество: BDRip-AVC
Формат: MKV

Видео: 1024x428 (2.40:1), 24,000 fps, x264 ~1 794 kbps avg, 0.171 bit/pixel
Аудио: 48 kHz, AC3 Dolby Digital, 3/2 (L,C,R,l,r) + LFE ch, ~384.00 kbps avg | RUS (iTunes)
скриншот  скриншот  скриншот  скриншот  скриншот  

Общее
Уникальный идентификатор : 212516642045251365988863621124607835687 (0x9FE13769E4BF8A8138CB69DCE3D5FE27)
Полное имя : F:\OlLanDGroup\Amundsen.2019.BDRip(AVC).OlLanDGroup.mkv
Формат : Matroska
Версия формата : Version 4 / Version 2
Размер файла : 1,90 Гбайт
Продолжительность : 2 ч. 4 м.
Общий поток : 2176 Кбит/сек
Название фильма : Amundsen 2019 #TorpedoUK#
Дата кодирования : UTC 2019-08-23 06:56:24
Программа кодирования : mkvmerge v29.0.0 ('Like It Or Not') 64-bit
Библиотека кодирования : libebml v1.3.6 + libmatroska v1.4.9

Видео
Идентификатор : 1
Формат : AVC
Формат/Информация : Advanced Video Codec
Профиль формата : [email protected]
Параметр CABAC формата : Да
Параметр ReFrames формата : 10 кадров
Идентификатор кодека : V_MPEG4/ISO/AVC
Продолжительность : 2 ч. 4 м.
Битрейт : 1794 Кбит/сек
Ширина : 1024 пикселя
Высота : 428 пикселей
Соотношение сторон : 2,40:1
Режим частоты кадров : Постоянный
Частота кадров : 24,000 кадра/сек
Цветовое пространство : YUV
Субдискретизация насыщенности : 4:2:0
Битовая глубина : 8 бит
Тип развёртки : Прогрессивная
Бит/(Пиксели*Кадры) : 0.171
Размер потока : 1,56 Гбайт (82%)
Библиотека кодирования : x264 core 146 r2538 121396c
Настройки программы : cabac=1 / ref=10 / deblock=1:-2:-3 / analyse=0x3:0x113 / me=umh / subme=11 / psy=1 / psy_rd=0.90:0.10 / mixed_ref=1 / me_range=48 / chroma_me=1 / trellis=2 / 8x8dct=1 / cqm=0 / deadzone=21,11 / fast_pskip=1 / chroma_qp_offset=-3 / threads=6 / lookahead_threads=1 / sliced_threads=0 / nr=0 / decimate=1 / interlaced=0 / bluray_compat=0 / constrained_intra=0 / bframes=11 / b_pyramid=2 / b_adapt=2 / b_bias=0 / direct=3 / weightb=1 / open_gop=0 / weightp=2 / keyint=240 / keyint_min=24 / scenecut=40 / intra_refresh=0 / rc_lookahead=40 / rc=2pass / mbtree=0 / bitrate=1794 / ratetol=1.0 / qcomp=0.60 / qpmin=0 / qpmax=69 / qpstep=4 / cplxblur=20.0 / qblur=0.5 / vbv_maxrate=50000 / vbv_bufsize=62500 / nal_hrd=none / filler=0 / ip_ratio=1.40 / pb_ratio=1.30 / aq=1:1.00
Язык : English
Default : Да
Forced : Нет

Аудио
Идентификатор : 2
Формат : AC-3
Формат/Информация : Audio Coding 3
Расширение режима : CM (complete main)
Параметр Endianness формата : Big
Идентификатор кодека : A_AC3
Продолжительность : 2 ч. 4 м.
Вид битрейта : Постоянный
Битрейт : 384 Кбит/сек
Каналы : 6 каналов
Расположение каналов : Front: L C R, Side: L R, LFE
Частота : 48,0 КГц
Частота кадров : 31,250 кадров/сек (1536 spf)
Битовая глубина : 16 бит
Метод сжатия : С потерями
Размер потока : 343 Мбайт (18%)
Заголовок : Дубляж [iTunes]
Язык : Russian
Default : Да
Forced : Нет

Текст
Идентификатор : 3
Формат : UTF-8
Идентификатор кодека : S_TEXT/UTF8
Идентификатор кодека/Информация : UTF-8 Plain Text
Продолжительность : 2 ч. 1 м.
Битрейт : 39 бит/сек
Count of elements : 1167
Размер потока : 35,0 Кбайт (0%)
Заголовок : Full
Язык : English
Default : Нет
Forced : Нет

Меню
00:00:00.000 : no:00:00:00.000
00:15:03.750 : no:00:15:03.750
00:30:22.458 : no:00:30:22.458
00:44:44.042 : no:00:44:44.042
01:00:35.875 : no:01:00:35.875
01:15:58.500 : no:01:15:58.500
01:29:39.208 : no:01:29:39.208
01:44:13.917 : no:01:44:13.917




Скачать Амундсен через торрент https://i106.fastpic.ru/big/2019/0823/d7/9b6e484a00149a1f606a67ca289c2ed7.jpg Скачать, смотреть онлайн Амундсен бесплантно в хорошем качестве Описание: Молодой норвежский путешественник грезит об открытии неизведанных полярных земель. В погоне за мечтой и грандиозными свершениями ... 10 10 4
Торрент: Зарегистрирован [2019-08-23 08:12] · скачан: 206 раз
Статус: √ проверено
Размер: 1.9 GB
Как cкачать? Как скачать Амундсен через торрент | UTorrent

% Раздел Тема Автор DL S | L
Фильмы 2019-2020 [DVDrip, WEB-DLRip, HDrip] (DUB, MVO) [ 2.13 GB ] Амундсен / Amundsen | Лицензия | BDRip Twi7ter Скачать
2 | 0
Фильмы 2019-2020 [DVDrip, WEB-DLRip, HDrip] (DUB, MVO) [ 1.46 GB ] Амундсен / Amundsen | Лицензия | BDRip Twi7ter Скачать
2 | 1
Фильмы 2019-2020 [DVDrip, WEB-DLRip, HDrip] (DUB, MVO) [ 2.13 GB ] Амундсен / Amundsen | iTunes | BDRip bober100 Скачать
1 | 0
Фильмы [HD 720p, 1080p] (Хороший звук DUB, MVO) [ 10.49 GB ] Амундсен / Amundsen | iTunes | 1080p bober100 Скачать
1 | 0
Фильмы 2019-2020 [DVDrip, WEB-DLRip, HDrip] (DUB, MVO) [ 1.46 GB ] Амундсен / Amundsen | iTunes | BDRip bober100 Скачать
1 | 0
Фильмы (Blu-ray, BD-Remux, HDDVD) [ 29.29 GB ] Амундсен / Amundsen | iTunes | BD Remux 1080p bober100 Скачать
1 | 0
Фильмы (WEB-DL 720p, 1080p) [ 4.36 GB ] Амундсен / Amundsen | iTunes | 1080p, Дубляж iTunes oleg8 Скачать
1 | 0

28-11-2019 20:33  


Отключить вcю реклaмy на сайте, в т.ч. и в плеере онлайн просмотра!

    Дорогой пользователь! Огромная просьба, поблагодарите релизера, оцените раздачу и оставьте свои комментарий, если Вы скачали Амундсен через торрент бесплатно!!
    Комментировать посты могут только пользователи прошедшие не сложную регистрацию
    Показать сообщения:    


    Амундсен через торрент
    Скачать бесплатно Амундсен
    Амундсен скачать торрент
    Амундсен смотреть онлайн
    Cкачать фильм Амундсен бесплатно
    Амундсен скачать торрент в хорошем качестве
    Амундсен смотреть онлайн бесплатно в хорошем качестве
    Вы не можете начинать темы
    Вы не можете отвечать на сообщения
    Вы не можете редактировать свои сообщения
    Вы не можете удалять свои сообщения
    Вы не можете голосовать в опросах
    Вы не можете прикреплять файлы к сообщениям
    Вы можете скачивать файлы
    Амундсен / Amundsen [2019, Приключения, биография, драма, история, BDRip-AVC] Дубляж [iTunes] смотреть онлайн, скачать торрент picoco.icu