Доктор Стрэндж

Лицензия

Добыча

Дубляж

Дом дракона

1 сезон

Тор

Дубляж

В эфире

Дубляж

Там, где раки поют

MVO

Властелин колец

1 сезон

GLOBAL

pack

Рекомендуем

30

Пиратка

ВАЖНО

ВАЖНО

Ghostwire

Пиратка

jed

RePack

nioh2

RePack

RDR2

RePack

NEED FOR SPEED™ PAYBACK

RePack

скачать торрент

Кинопоиск HD

Острые козырьки 6 сезон

6 сезон

FAR CRY 6

RePack

скачать торрент

Лицензия

скачать торрент

MVO

1

1 сезон

скачать торрент

1 сезон

скачать торрент

Лицензия

  

Джон Уик 3 / John Wick: Chapter 3 - Parabellum (Чад Стахелски) [2019, боевик, триллер, криминал, HDRip-AVC] Дубляж [iTunes] +MVO [HDRezka]

Джон Уик 3 через торрент 2022.piratbit.fun

Размер: 2.15 GB | Добавлен: 3 года 3 мес. назад | Торрент скачан:919 раз
Смотреть онлайн | Скачать   

25-08-2019 04:04 Джон Уик 3 Скачать торрент  

Джон Уик 3 / John Wick: Chapter 3 - Parabellum«Тик-так, мистер Уик»
Год выпуска: 2019
Страна: США
Жанр: боевик, триллер, криминал
Продолжительность: 02:11:05
Перевод:

#1: Дублированный | iTunes
#2: Профессиональный многоголосый | HDRezka

Субтитры: Русские (форс.)

Режиссер: Чад Стахелски

rating

В ролях:

Киану Ривз (John Wick), Холли Берри (Sofia), Иэн МакШейн (Winston), Лоренс Фишбёрн (Bowery King), Марк Дакаскос (Zero), Азия Кейт Диллон (The Adjudicator), Лэнс Реддик (Charon), Тобиаш Сигал (Earl), Анжелика Хьюстон (The Director), Саид Тагмауи (The Elder), Джером Флинн (Berrada), Рэндолл Дак Ким (Doctor)
Описание: Суперкиллер Джон Уик после нарушения кодекса тайной гильдии ассасинов получает статус изгоя - экскомьюникадо. За его голову назначена цена в 14 миллионов долларов, и армия самых жестоких профессиональных убийц со всего мира открывает на него кровавую охоту.

Качество: HDRip-AVC
Формат: MKV

Видео: 1024x426 (2.40:1), 23,976 fps, x264 ~1 768 Mbps avg, 0.169 bit/pixel
Аудио#1: 48 kHz, AC3 Dolby Digital, 3/2 (L,C,R,l,r) + LFE ch, ~384.00 kbps avg | RUS (iTunes)
Аудио#2: 48 kHz, AC3 Dolby Digital, 2 (L,R) ch, ~192.00 kbps avg | RUS (HDRezka)
скриншот  скриншот  скриншот  скриншот  скриншот  

Общее
Уникальный идентификатор : 212124936796170170647597969885985720816 (0x9F95C6DA935C5253CA9815A39E8B49F0)
Полное имя : F:OlLanDGroupJohn.Wick.3.2019.HDRip(AVC).OlLanDGroup.mkv
Формат : Matroska
Версия формата : Version 4 / Version 2
Размер файла : 2,15 Гбайт
Продолжительность : 2 ч. 11 м.
Общий поток : 2345 Кбит/сек
Название фильма : John Wick 3 2019 #TorpedoUK#
Дата кодирования : UTC 2019-08-25 02:39:10
Программа кодирования : mkvmerge v29.0.0 ('Like It Or Not') 64-bit
Библиотека кодирования : libebml v1.3.6 + libmatroska v1.4.9

Видео
Идентификатор : 1
Формат : AVC
Формат/Информация : Advanced Video Codec
Профиль формата : [email protected]
Параметр CABAC формата : Да
Параметр ReFrames формата : 10 кадров
Идентификатор кодека : V_MPEG4/ISO/AVC
Продолжительность : 2 ч. 11 м.
Битрейт : 1768 Кбит/сек
Ширина : 1024 пикселя
Высота : 426 пикселей
Соотношение сторон : 2,40:1
Режим частоты кадров : Постоянный
Частота кадров : 23,976 (24000/1001) кадра/сек
Цветовое пространство : YUV
Субдискретизация насыщенности : 4:2:0
Битовая глубина : 8 бит
Тип развёртки : Прогрессивная
Бит/(Пиксели*Кадры) : 0.169
Размер потока : 1,62 Гбайт (75%)
Библиотека кодирования : x264 core 146 r2538 121396c
Настройки программы : cabac=1 / ref=10 / deblock=1:-3:-3 / analyse=0x3:0x113 / me=umh / subme=11 / psy=1 / psy_rd=0.97:0.05 / mixed_ref=1 / me_range=48 / chroma_me=1 / trellis=2 / 8x8dct=1 / cqm=0 / deadzone=21,11 / fast_pskip=1 / chroma_qp_offset=-3 / threads=6 / lookahead_threads=1 / sliced_threads=0 / nr=0 / decimate=1 / interlaced=0 / bluray_compat=0 / constrained_intra=0 / bframes=11 / b_pyramid=2 / b_adapt=2 / b_bias=0 / direct=3 / weightb=1 / open_gop=0 / weightp=2 / keyint=240 / keyint_min=23 / scenecut=40 / intra_refresh=0 / rc_lookahead=40 / rc=2pass / mbtree=0 / bitrate=1768 / ratetol=1.0 / qcomp=0.60 / qpmin=0 / qpmax=69 / qpstep=4 / cplxblur=20.0 / qblur=0.5 / vbv_maxrate=50000 / vbv_bufsize=62500 / nal_hrd=none / filler=0 / ip_ratio=1.40 / pb_ratio=1.30 / aq=1:1.00
Язык : English
Default : Да
Forced : Нет

Аудио #1
Идентификатор : 2
Формат : AC-3
Формат/Информация : Audio Coding 3
Расширение режима : CM (complete main)
Параметр Endianness формата : Big
Идентификатор кодека : A_AC3
Продолжительность : 2 ч. 11 м.
Вид битрейта : Постоянный
Битрейт : 384 Кбит/сек
Каналы : 6 каналов
Расположение каналов : Front: L C R, Side: L R, LFE
Частота : 48,0 КГц
Частота кадров : 31,250 кадров/сек (1536 spf)
Битовая глубина : 16 бит
Метод сжатия : С потерями
Размер потока : 360 Мбайт (16%)
Заголовок : Дубляж [iTunes]
Язык : Russian
Default : Да
Forced : Нет

Аудио #2
Идентификатор : 3
Формат : AC-3
Формат/Информация : Audio Coding 3
Расширение режима : CM (complete main)
Параметр Endianness формата : Big
Идентификатор кодека : A_AC3
Продолжительность : 2 ч. 11 м.
Вид битрейта : Постоянный
Битрейт : 192 Кбит/сек
Каналы : 2 канала
Расположение каналов : Front: L R
Частота : 48,0 КГц
Частота кадров : 31,250 кадров/сек (1536 spf)
Битовая глубина : 16 бит
Метод сжатия : С потерями
Размер потока : 180 Мбайт (8%)
Заголовок : MVO [HDRezka]
Язык : Russian
Default : Нет
Forced : Нет

Текст
Идентификатор : 4
Формат : UTF-8
Идентификатор кодека : S_TEXT/UTF8
Идентификатор кодека/Информация : UTF-8 Plain Text
Продолжительность : 1 ч. 34 м.
Битрейт : 1 бит/сек
Count of elements : 24
Размер потока : 809 байт (0%)
Заголовок : Forced
Язык : Russian
Default : Да
Forced : Нет

Меню
00:00:00.000 : :Chapter 1
00:05:32.374 : :Chapter 2
00:20:17.591 : :Chapter 3
00:31:45.570 : :Chapter 4
00:41:08.257 : :Chapter 5
00:50:46.669 : :Chapter 6
01:03:15.667 : :Chapter 7
01:14:46.857 : :Chapter 8
01:23:05.105 : :Chapter 9
01:28:51.243 : :Chapter 10
01:49:32.316 : :Chapter 11
02:02:16.996 : :Chapter 12




Скачать Джон Уик 3 через торрент https://i6-imageban-ru.translate.goog/out/2019/08/15/afc2d733037a13aae9c61eb53d6f3823.jpg Скачать, смотреть онлайн Джон Уик 3 бесплантно в хорошем качестве Описание: Суперкиллер Джон Уик после нарушения кодекса тайной гильдии ассасинов получает статус изгоя - экскомьюникадо. За его голову ... 9.9 10 18
Info! Золотая раздача, скачанное не засчитывается.
Торрент: Зарегистрирован [2019-08-25 04:04] · скачан: 919 раз
Статус: √ проверено
Размер: 2.15 GB
Как cкачать? Как скачать Джон Уик 3 через торрент | UTorrent

% Раздел Тема Автор DL S | L
Фильмы с авторской озвучкой [ 2.17 GB ] Джон Уик 3: Парабеллум - Готовься к войне / John Wick: Chapter 3 - Parabellum | AVO | BDRip killermax2013 Скачать
1 | 0
Фильмы 2019-2020 [DVDrip, WEB-DLRip, HDrip] (DUB, MVO) [ 2.12 GB ] Джон Уик 3 / John Wick: Chapter 3 - Parabellum | Лицензия | BDRip Twi7ter Скачать
14 | 1
Фильмы 2019-2020 [DVDrip, WEB-DLRip, HDrip] (DUB, MVO) [ 1.46 GB ] Джон Уик 3 / John Wick: Chapter 3 - Parabellum | Лицензия | BDRip Twi7ter Скачать
19 | 1
Фильмы [HD 720p, 1080p] (Хороший звук DUB, MVO) [ 7.38 GB ] Джон Уик 3 / John Wick: Chapter 3 - Parabellum | MVO | 720p Enigma2010 Скачать
1 | 0
Ultra HD (UHD: 2K, 4K, 8K) [ 37.44 GB ] Джон Уик 3 / John Wick: Chapter 3 - Parabellum | iTunes | 2160p sheker187 Скачать
2 | 0
Ultra HD (UHD: 2K, 4K, 8K) [ 65.77 GB ] Джон Уик 3 / John Wick: Chapter 3 - Parabellum | iTunes | 2160p bober100 Скачать
1 | 0
Ultra HD (UHD: 2K, 4K, 8K) [ 63.11 GB ] Джон Уик 3 / John Wick: Chapter 3 - Parabellum | iTunes | 2160p bober100 Скачать
1 | 0

28-11-2019 20:33  


Отключить вcю реклaмy на сайте, в т.ч. и в плеере онлайн просмотра!

    Дорогой пользователь! Огромная просьба, поблагодарите релизера, оцените раздачу и оставьте свои комментарий, если Вы скачали Джон Уик 3 через торрент бесплатно!!
    Комментировать посты могут только пользователи прошедшие не сложную регистрацию
    Показать сообщения:    


    Джон Уик 3 через торрент
    Скачать бесплатно Джон Уик 3
    Джон Уик 3 скачать торрент
    Джон Уик 3 смотреть онлайн
    Cкачать фильм Джон Уик 3 бесплатно
    Джон Уик 3 скачать торрент в хорошем качестве
    Джон Уик 3 смотреть онлайн бесплатно в хорошем качестве
    Вы не можете начинать темы
    Вы не можете отвечать на сообщения
    Вы не можете редактировать свои сообщения
    Вы не можете удалять свои сообщения
    Вы не можете голосовать в опросах
    Вы не можете прикреплять файлы к сообщениям
    Вы можете скачивать файлы
    Джон Уик 3 / John Wick: Chapter 3 - Parabellum [2019, боевик, триллер, криминал, HDRip-AVC] Дубляж [iTunes] +MVO [HDRezka] смотреть онлайн, скачать торрент picoco.icu