Доктор Стрэндж

Лицензия

Добыча

Дубляж

Дом дракона

1 сезон

Тор

Дубляж

В эфире

Дубляж

Там, где раки поют

MVO

Властелин колец

1 сезон

GLOBAL

pack

Рекомендуем

30

Пиратка

ВАЖНО

ВАЖНО

Ghostwire

Пиратка

jed

RePack

nioh2

RePack

RDR2

RePack

NEED FOR SPEED™ PAYBACK

RePack

скачать торрент

Кинопоиск HD

Острые козырьки 6 сезон

6 сезон

FAR CRY 6

RePack

скачать торрент

Лицензия

скачать торрент

MVO

1

1 сезон

скачать торрент

1 сезон

скачать торрент

Лицензия

  

Белоснежка. Сказка для взрослых / Blanche comme neige (Анн Фонтен) [2019, драма, комедия, WEB-DLRip-AVC] [Дубляж]

Белоснежка. Сказка для взрослых через торрент 2022.piratbit.fun

Раздают: 1 [ 72 KB/s ]
Размер: 1.45 GB | Добавлен: 3 года 2 мес. назад | Торрент скачан:1305 раз
Смотреть онлайн | Скачать   

31-08-2019 13:25 Белоснежка. Сказка для взрослых Скачать торрент  

Белоснежка. Сказка для взрослых
Blanche comme neige

Страна: Франция, Бельгия
Жанр: драма, комедия
Год выпуска: 2019
Продолжительность: 01:52:17

Перевод: Профессиональный (полное дублирование) [Soul-Pro | iTunes]
Субтитры: нет
Оригинальная аудиодорожка: нет

Режиссер: Анн Фонтен / Anne Fontaine

В ролях: Лу де Лааж, Изабель Юппер, Шарль Берлинг, Дамиен Боннар, Джонатан Коэн, Ричард Фрешетт, Венсан Макен, Пабло Поли, Бенуа Пульворд, Аврора Брутен

Описание: После смерти отца юная и прекрасная сирота Клэр продолжает работать в принадлежавшем ему отеле под руководством авторитарной мачехи Мод. Когда молодой любовник Мод заглядывается на Клэр, ревнивая вдова решает жестоко избавиться от соперницы. Клэр бежит на отдаленную ферму, где встречает семерых мужчин и начинает познания себя и своей сексуальности.



Релиз:

Автор рипа: stalkerok

Сэмпл

Качество видео: WEB-DLRip-AVC | Исходник: BELOSNEZHKA_SDV_2019_WEB-DL_1080p-BLUEBIRD
Формат видео: MKV
Видео кодек: AVC
Аудио кодек: AC3
Видео: AVC, 1462 Кбит/сек, 1152x648 (16:9), 24 кадр/сек
Аудио: AC3, 384 Кбит/сек, 48 КГц, 5.1 - русский
Навигация по главам: есть
---[Information] [31.08.2019 16:07:24] x264 [info]: frame I:910 Avg QP:15.34 size: 49764
---[Information] [31.08.2019 16:07:24] x264 [info]: frame P:40686 Avg QP:17.42 size: 15518
---[Information] [31.08.2019 16:07:24] x264 [info]: frame B:120092 Avg QP:19.15 size: 4619

General
Unique ID : 106388327985484042518773041566027353699 (0x5009A58B83651B68B07530CD6A440E63)
Complete name : C:\temp\Blanche comme neige\Blanche.comme.neige.2019.WEB-DLRip.x264.Rus.stalkerok.New-Team.mkv
Format : Matroska
Format version : Version 4
File size : 1.45 GiB
Duration : 1 h 52 min
Overall bit rate : 1 848 kb/s
Movie name : Blanche comme neige (White as Snow) (2019) | Rip by stalkerok
Encoded date : UTC 2019-08-31 13:09:00
Writing application : mkvmerge v33.1.0 ('Primrose') 64-bit
Writing library : libebml v1.3.7 + libmatroska v1.5.0
Cover : Yes
Attachments : cover.png

Video
ID : 1
Format : AVC
Format/Info : Advanced Video Codec
Format profile : [email protected]
Format settings : CABAC / 11 Ref Frames
Format settings, CABAC : Yes
Format settings, Reference frames : 11 frames
Codec ID : V_MPEG4/ISO/AVC
Duration : 1 h 52 min
Bit rate : 1 462 kb/s
Width : 1 152 pixels
Height : 648 pixels
Display aspect ratio : 16:9
Frame rate mode : Constant
Frame rate : 24.000 FPS
Color space : YUV
Chroma subsampling : 4:2:0
Bit depth : 8 bits
Scan type : Progressive
Bits/(Pixel*Frame) : 0.082
Stream size : 1.15 GiB (79%)
Title : Blanche comme neige (White as Snow) (2019) | Rip by stalkerok
Writing library : x264 core 158 r2984+49 6932f4a t_mod_New [[email protected] X86_64]
Encoding settings : cabac=1 / ref=11 / deblock=1:-3:-2 / analyse=0x3:0x133 / me=umh / subme=11 / psy=1 / fade_compensate=0.00 / psy_rd=1.00:0.00 / mixed_ref=1 / me_range=32 / chroma_me=1 / trellis=2 / 8x8dct=1 / cqm=0 / deadzone=21,11 / fast_pskip=0 / chroma_qp_offset=-2 / threads=12 / lookahead_threads=3 / sliced_threads=0 / nr=0 / decimate=1 / interlaced=0 / bluray_compat=0 / constrained_intra=0 / fgo=0 / bframes=14 / b_pyramid=2 / b_adapt=2 / b_bias=0 / direct=3 / weightb=1 / open_gop=0 / weightp=2 / keyint=240 / keyint_min=23 / scenecut=40 / intra_refresh=0 / rc_lookahead=60 / rc=crf / mbtree=0 / crf=19.8000 / qcomp=0.65 / qpmin=0:0:0 / qpmax=69:69:69 / qpstep=4 / vbv_maxrate=50000 / vbv_bufsize=62500 / crf_max=0.0 / nal_hrd=none / filler=0 / ip_ratio=1.40 / pb_ratio=1.30 / aq=3:0.80 / aq-sensitivity=10.00 / aq-factor=1.00:1.00:1.00 / aq2=0 / aq3=0 / zones=156281,161687,q=32
Default : Yes
Forced : No

Audio
ID : 2
Format : AC-3
Format/Info : Audio Coding 3
Commercial name : Dolby Digital
Codec ID : A_AC3
Duration : 1 h 52 min
Bit rate mode : Constant
Bit rate : 384 kb/s
Channel(s) : 6 channels
Channel layout : L R C LFE Ls Rs
Sampling rate : 48.0 kHz
Frame rate : 31.250 FPS (1536 SPF)
Bit depth : 16 bits
Compression mode : Lossy
Stream size : 308 MiB (21%)
Title : Дубляж
Language : Russian
Service kind : Complete Main
Default : Yes
Forced : No

Menu
00:00:00.000 : en:Глава 1
00:09:05.125 : en:Глава 2
00:17:36.166 : en:Глава 3
00:26:40.249 : en:Глава 4
00:35:07.082 : en:Глава 5
00:43:18.665 : en:Глава 6
00:53:02.748 : en:Глава 7
01:02:26.414 : en:Глава 8
01:12:42.080 : en:Глава 9
01:22:46.163 : en:Глава 10
01:32:52.454 : en:Глава 11
01:41:46.912 : en:Глава 12



Скачать Белоснежка. Сказка для взрослых через торрент http://i6-imageban-ru.translate.goog/out/2017/09/18/2ff75c0c358795c5946784cc1680714d.png Скачать, смотреть онлайн Белоснежка. Сказка для взрослых бесплантно в хорошем качестве Описание: После смерти отца юная и прекрасная сирота Клэр продолжает работать в принадлежавшем ему отеле под руководством авторитарной ... 9.4 10 18
Info! Золотая раздача, скачанное не засчитывается.
Торрент: Зарегистрирован [2019-08-31 13:25] · скачан: 1 305 раз
Статус: √ проверено
Размер: 1.45 GB
Как cкачать? Как скачать Белоснежка. Сказка для взрослых через торрент | UTorrent

% Раздел Тема Автор DL S | L
Фильмы 2019-2020 [DVDrip, WEB-DLRip, HDrip] (DUB, MVO) [ 747 MB ] Белоснежка. Сказка для взрослых / Blanche comme neige | iTunes | BDRip bober100 Скачать
1 | 0
Фильмы 2019-2020 [DVDrip, WEB-DLRip, HDrip] (DUB, MVO) [ 2.13 GB ] Белоснежка. Сказка для взрослых / Blanche comme neige | Лицензия | BDRip Twi7ter Скачать
4 | 0
Фильмы 2019-2020 [DVDrip, WEB-DLRip, HDrip] (DUB, MVO) [ 1.41 GB ] Белоснежка. Сказка для взрослых / Blanche comme neige | Лицензия | BDRip Twi7ter Скачать
3 | 0
Фильмы 2019-2020 [DVDrip, WEB-DLRip, HDrip] (DUB, MVO) [ 1.46 GB ] Белоснежка. Сказка для взрослых / Blanche comme neige | iTunes | BDRip bober100 Скачать
1 | 0
Фильмы (WEB-DL 720p, 1080p) [ 3.5 GB ] Белоснежка. Сказка для взрослых / Blanche comme neige | iTunes | 720p bober100 Скачать
1 | 0
Фильмы (WEB-DL 720p, 1080p) [ 4.21 GB ] Белоснежка. Сказка для взрослых / Blanche comme neige | iTunes | 1080p bober100 Скачать
1 | 0

28-11-2019 20:33  


Отключить вcю реклaмy на сайте, в т.ч. и в плеере онлайн просмотра!

01-09-2019 06:02 Белоснежка. Сказка для взрослых Скачать торрент  

глянем)))



01-09-2019 19:35 Белоснежка. Сказка для взрослых Скачать торрент  

"..где встречает семерых мужчин и начинает познания себя и своей сексуальности."




06-05-2020 12:15 Белоснежка. Сказка для взрослых Скачать торрент  

Тема сисег раскрыта?



    Дорогой пользователь! Огромная просьба, поблагодарите релизера, оцените раздачу и оставьте свои комментарий, если Вы скачали Белоснежка. Сказка для взрослых через торрент бесплатно!!
    Комментировать посты могут только пользователи прошедшие не сложную регистрацию
    Показать сообщения:    


    Белоснежка. Сказка для взрослых через торрент
    Скачать бесплатно Белоснежка. Сказка для взрослых
    Белоснежка. Сказка для взрослых скачать торрент
    Белоснежка. Сказка для взрослых смотреть онлайн
    Cкачать фильм Белоснежка. Сказка для взрослых бесплатно
    Белоснежка. Сказка для взрослых скачать торрент в хорошем качестве
    Белоснежка. Сказка для взрослых смотреть онлайн бесплатно в хорошем качестве
    Вы не можете начинать темы
    Вы не можете отвечать на сообщения
    Вы не можете редактировать свои сообщения
    Вы не можете удалять свои сообщения
    Вы не можете голосовать в опросах
    Вы не можете прикреплять файлы к сообщениям
    Вы можете скачивать файлы
    Белоснежка. Сказка для взрослых / Blanche comme neige [2019, драма, комедия, WEB-DLRip-AVC] [Дубляж] смотреть онлайн, скачать торрент picoco.icu